注册 登录  
 加关注
   显示下一条  |  关闭
温馨提示!由于新浪微博认证机制调整,您的新浪微博帐号绑定已过期,请重新绑定!立即重新绑定新浪微博》  |  关闭

逆风飞翔的鸟

追逐风中散落的默契~

 
 
 

日志

 
 
关于我

曾经迷惑于一份距离 曾经感动于一个传说 …… 在仆仆风中 我伸手 抓住你我的缘分 …… “傻傻”的你 能闻到风中 你我的默契吗?!

网易考拉推荐

【动作】God.Bless.America.2011.上帝保佑美国  

2012-07-24 09:05:57|  分类: 动作 |  标签: |举报 |字号 订阅

  下载LOFTER 我的照片书  |
【动作】God.Bless.America.2011.上帝保佑美国 - 归鸿 - 逆风飞翔的鸟

◎译  名  上帝保佑美国
 ◎片  名  God Bless America
 ◎年  代 2011
 ◎国  家 美国
 ◎类  别 剧情/喜剧
 ◎语  言 英语
 ◎字  幕 中文
 ◎IMDB链接  http://www.imdb.com/title/tt1912398
 ◎片  长 1h 44mn
 ◎导  演 博卡·格德斯维特 Bobcat Goldthwait
 ◎主  演 Joel Murray ….Frank
       Tara Lynne Barr ….Roxy
       Mackenzie Brooke Smith ….Ava
       Melinda Page Hamilton ….Alison
       Rich McDonald ….Brad
       Guerrin Gardner ….Crystal
       Kellie Ramdhanie ….Bad Girl #2
       Andrea Harper ….Mother
       David Mendenhall ….Father
       Juliana Acosta ....Press Conference Reporter
       Steve Agee ....Crew Member
       Iris Almario ....Reporter
       Aris Alvarado ....Steve Clark
       Carson Aune ....Boy #2
       Dorie Barton ....Tracey
       David Boat ....(voice)
       Kirk Bovill ....Police Captain
       Claude Bragg ....Rich High School Kid
       Romeo Brown ....John Tyler
       Regan Burns ....Michael Dunne
       Aaron Burt ....Jerky Boy #2
       Michael Carbonaro ....Robbie Barkly
       Jack Plotnick ....Party Planner #2
       Brendalyn Richard ....Karen
       Maico Roa ....Press Conference Reporter
       Brad Rowe ....Angry Man
       James Rustin ....Rich Boy
       Nate Scholz ....Paparazzi
       Claudia Serven ....American Superstarz Celebrity
       Dan Spencer ....Doctor
       Sasha Stuber ....Amber
       Christopher Swank ....Office Worker
       Jill Talley ....Sue
       Philip Anthony Traylor ....Security Guard
       Mike Tristano ....Mike
       Tony V. ....Humbert Green
       Sandra Vergara ....Mercedes Paar
       特拉维斯·韦斯特 Travis Wester ....Ed
       Scot Zeller ....Ronald
       Fileena Bahris ....American Superstarz Fan (uncredited)
       Joanne Bahris ....Audience Member (uncredited)
       I. Elijah Baughman ....Bodyguard (uncredited)
       Curt Darwin ....Extra (uncredited)
       Joe Ford ....Extra (uncredited)
       Brittany King ....Extra (uncredited)
       Janine King ....Extra (uncredited)
       Tom Massmann ....Bodyguard (uncredited)
       Eric Salazar ....Patron (uncredited)
       Keith Shawn ....Fan (uncredited)
       Sarah B. Downey ....Office Worker
       Frederick Gourgue ....TMI Camera man
       Lenny Porterfield ....Security Guard
       Nevan Stewart ....Standing Cameraman (uncredited)
 

◎内容介绍
 
    一位无所事事的的中年男人先被公司辞退,又再被诊断患有脑瘤,弗兰克(Joel Murray饰)想要以自杀了结此生。然而,他在一个电视真人秀节目中,看到一个被父母宠坏的女孩,因为没有收到心仪的生日礼物,对父母大爱发脾气。所以他决定去杀人而不是去自杀,去杀掉那些粗鲁又烦人的人,特别是电视真人秀节目里那些不知廉耻的人。弗兰克想要这些该死的人全部去死。当他杀害chloe的时候,被一个名叫Roxy(Tara Lynne Barr饰)的女孩看见,她与他有着同样的梦想,对那些丧失文明的人恨之入骨,便加入了弗兰克。他们杀掉在电影院大声吵闹的人,杀掉用一辆车占两个车位的人,同时弗兰克教给Roxy枪法。最后,他们来到了一个类似《美国偶像》的电视节目直播现场,来完成他们的梦想。
 


  General #1
    ID : 1 (0x1)
    Complete name : 00000.m2ts
    Format : BDAV
    Format/Info : Blu-ray Video
    File size : 29.0 GiB
    Duration : 1h 49mn
    Overall bit rate mode : Variable
    Overall bit rate : 37.9 Mbps
    Maximum Overall bit rate : 35.5 Mbps
  Video #4113
    ID : 4113 (0x1011)
    Menu ID : 1 (0x1)
    Format : AVC
    Format/Info : Advanced Video Codec
    Format profile : High@L4.1
    Format settings, CABAC : Yes
    Format settings, ReFrames : 4 frames
    Codec ID : 27
    Duration : 1h 44mn
    Bit rate mode : Variable
    Bit rate : 33.4 Mbps
    Maximum bit rate : 38.0 Mbps
    Width : 1 920 pixels
    Height : 1 080 pixels
    Display aspect ratio : 16:9
    Frame rate : 23.976 fps
    Color space : YUV
    Chroma subsampling : 4:2:0
    Bit depth : 8 bits
    Scan type : Progressive
    Bits/(Pixel*Frame) : 0.671
    Stream size : 24.3 GiB (84%)
  Audio #4352-212
    ID : 4352 (0x1100)-212 (0xD4)
    Menu ID : 1 (0x1)
    Format : DTS
    Format/Info : Digital Theater Systems
    Codec ID : 134
    Duration : 1h 49mn
    Bit rate mode : Constant
    Bit rate : 1 510 Kbps
    Channel(s) : 6 channels
    Channel positions : Front: L C R, Side: L R, LFE
    Sampling rate : 48.0 KHz
    Bit depth : 24 bits
    Compression mode : Lossy
    Stream size : 1.15 GiB (4%)
    Language : English
  Audio #4352-253-113
    ID : 4352 (0x1100)-253 (0xFD)-113 (0x71)
    Menu ID : 1 (0x1)
    Format : DTS
    Format/Info : Digital Theater Systems
    Muxing mode : Stream extension
    Duration : 629ms / 1h 43mn
    Bit rate mode : Constant
    Bit rate : 1 510 Kbps
    Channel(s) : 6 channels
    Channel positions : Front: L C R, Side: L R, LFE
    Sampling rate : 48.0 KHz
    Bit depth : 24 bits
    Compression mode : Lossy
    Stream size : 116 KiB (0%)
  Text #4608
    ID : 4608 (0x1200)
    Menu ID : 1 (0x1)
    Format : PGS
    Codec ID : 144
    Language : Chinese
  Text #4609
    ID : 4609 (0x1201)
    Menu ID : 1 (0x1)
    Format : PGS
    Codec ID : 144
    Language : Chinese
  Text #4610
    ID : 4610 (0x1202)
    Menu ID : 1 (0x1)
    Format : PGS
    Codec ID : 144
    Language : English
  Text #4611
    ID : 4611 (0x1203)
    Menu ID : 1 (0x1)
    Format : PGS
    Codec ID : 144
    Language : Spanish

  评论这张
 
阅读(139)| 评论(0)
推荐 转载

历史上的今天

在LOFTER的更多文章

评论

<#--最新日志,群博日志--> <#--推荐日志--> <#--引用记录--> <#--博主推荐--> <#--随机阅读--> <#--首页推荐--> <#--历史上的今天--> <#--被推荐日志--> <#--上一篇,下一篇--> <#-- 热度 --> <#-- 网易新闻广告 --> <#--右边模块结构--> <#--评论模块结构--> <#--引用模块结构--> <#--博主发起的投票-->
 
 
 
 
 
 
 
 
 
 
 
 
 
 

页脚

网易公司版权所有 ©1997-2017