注册 登录  
 加关注
   显示下一条  |  关闭
温馨提示!由于新浪微博认证机制调整,您的新浪微博帐号绑定已过期,请重新绑定!立即重新绑定新浪微博》  |  关闭

逆风飞翔的鸟

追逐风中散落的默契~

 
 
 

日志

 
 
关于我

曾经迷惑于一份距离 曾经感动于一个传说 …… 在仆仆风中 我伸手 抓住你我的缘分 …… “傻傻”的你 能闻到风中 你我的默契吗?!

网易考拉推荐

【动作】High.Noon.1952.正午  

2012-07-24 09:34:14|  分类: 动作 |  标签: |举报 |字号 订阅

  下载LOFTER 我的照片书  |
【动作】High.Noon.1952.正午 - 归鸿 - 逆风飞翔的鸟

◎片  名 High Noon
◎译  名 正午
◎又  名 日正当中/龙城歼霸战
◎年  代 1952
◎地  区 美国
◎类  别 剧情/西部
◎IMDB链接  http://www.imdb.com/title/tt0044706/ Top 250 #150
◎语  言 国英双语
◎片  长 85 mins 8 seconds
◎导  演 弗雷德·金尼曼 Fred Zinnemann
◎主  演 加里·库柏 Gary Cooper ... Marshal Will Kane 
       格蕾丝·凯利 Grace Kelly ... Amy Fowler Kane 
       托马斯·米切尔 Thomas Mitchell ... Mayor Jonas Henderson 
       劳埃德·布里奇斯 Lloyd Bridges ... Deputy Marshal Harvey Pell 
       凯蒂·乔拉杜Katy Jurado ... Helen Ramírez
       Otto Kruger ...  Judge Percy Mettrick
 
 
◎简  介
 
  小镇执法官威尔·凯恩(加里·库柏 Gary Cooper 饰)在卸任的当天,同未婚妻艾米(Grace Kelly 饰)举行了婚礼,两人预备开始蜜月旅行的当口,小镇迎来了三位不速之客,他们是皮尔斯、科比和本,三人在火车站等候五年前被威尔抓获的恶棍弗兰克·米勒。预感小镇将被卷入一场血腥仇杀的人们纷纷躲避,或者力劝威尔离开,但前任执法官执意留下,并开始在镇上寻找帮手,岂料不得升迁的员警哈维、当年审判弗兰克的法官等人全部与此事撇清了关系,新婚妻子亦不支持威尔的坚守,孤立无援的威尔只得拿起自己的枪战斗……
 
  这部影片中的时间与真实世界中的时间步调一致。本片获1953年奥斯卡最佳男主角奖等十余项专业褒奖。

 

  General #1
    ID : 1 (0x1)
    Complete name : 00000.m2ts
    Format : BDAV
    Format/Info : Blu-ray Video
    File size : 14.4 GiB
    Duration : 1h 25mn
    Overall bit rate mode : Variable
    Overall bit rate : 24.3 Mbps
    Maximum Overall bit rate : 35.5 Mbps
  Video #4113
    ID : 4113 (0x1011)
    Menu ID : 1 (0x1)
    Format : AVC
    Format/Info : Advanced Video Codec
    Format profile : High@L4.1
    Format settings, CABAC : Yes
    Format settings, ReFrames : 4 frames
    Format settings, GOP : M=3, N=24
    Codec ID : 27
    Duration : 1h 25mn
    Bit rate mode : Variable
    Bit rate : 22.3 Mbps
    Maximum bit rate : 32.0 Mbps
    Width : 1 920 pixels
    Height : 1 080 pixels
    Display aspect ratio : 16:9
    Frame rate : 23.976 fps
    Standard : NTSC
    Color space : YUV
    Chroma subsampling : 4:2:0
    Bit depth : 8 bits
    Scan type : Progressive
    Bits/(Pixel*Frame) : 0.449
    Stream size : 13.3 GiB (92%)
    Color primaries : BT.709-5, BT.1361, IEC 61966-2-4, SMPTE RP177
    Transfer characteristics : BT.709-5, BT.1361
    Matrix coefficients : BT.709-5, BT.1361, IEC 61966-2-4 709, SMPTE RP177
  Audio #4352
    ID : 4352 (0x1100)
    Menu ID : 1 (0x1)
    Format : DTS
    Format/Info : Digital Theater Systems
    Format profile : MA / Core
    Muxing mode : Stream extension
    Codec ID : 134
    Duration : 1h 24mn
    Bit rate mode : Variable
    Bit rate : 800 Kbps / 755 Kbps
    Channel(s) : 1 channel
    Channel positions : Front: C
    Sampling rate : 48.0 KHz
    Bit depth : 16 bits
    Compression mode : Lossless / Lossy
    Language : English
  Audio #4353
    ID : 4353 (0x1101)
    Menu ID : 1 (0x1)
    Format : AC-3
    Format/Info : Audio Coding 3
    Codec ID : 129
    Duration : 1h 24mn
    Bit rate : 192 Kbps
    Channel(s) : 2 channels
    Sampling rate : 48.0 KHz
    Compression mode : Lossy
    Stream size : 116 MiB (1%)
    Language : Chinese
  Text #4608
    ID : 4608 (0x1200)
    Menu ID : 1 (0x1)
    Format : PGS
    Codec ID : 144
    Delay relative to video : 12s 387ms
    Language : Chinese

  评论这张
 
阅读(160)| 评论(0)
推荐 转载

历史上的今天

评论

<#--最新日志,群博日志--> <#--推荐日志--> <#--引用记录--> <#--博主推荐--> <#--随机阅读--> <#--首页推荐--> <#--历史上的今天--> <#--被推荐日志--> <#--上一篇,下一篇--> <#-- 热度 --> <#-- 网易新闻广告 --> <#--右边模块结构--> <#--评论模块结构--> <#--引用模块结构--> <#--博主发起的投票-->
 
 
 
 
 
 
 
 
 
 
 
 
 
 

页脚

网易公司版权所有 ©1997-2017