注册 登录  
 加关注
   显示下一条  |  关闭
温馨提示!由于新浪微博认证机制调整,您的新浪微博帐号绑定已过期,请重新绑定!立即重新绑定新浪微博》  |  关闭

逆风飞翔的鸟

追逐风中散落的默契~

 
 
 

日志

 
 
关于我

曾经迷惑于一份距离 曾经感动于一个传说 …… 在仆仆风中 我伸手 抓住你我的缘分 …… “傻傻”的你 能闻到风中 你我的默契吗?!

网易考拉推荐

【亚洲】Ring.1998.午夜凶铃  

2012-07-24 10:45:33|  分类: 亚洲 |  标签: |举报 |字号 订阅

  下载LOFTER 我的照片书  |
【亚洲】Ring.1998.午夜凶铃 - 归鸿 - 逆风飞翔的鸟

◎译  名  Ring
 ◎片  名  午夜凶铃
 ◎年  代  1998
 ◎国  家  日本
 ◎类  别  惊悚/恐怖/悬疑
 ◎IMDB链接  http://www.imdb.com/title/tt0178868/
 ◎语  言  日语
 ◎字  幕  中文
 ◎片  长  95 mins 19 seconds
 ◎导  演  中田秀夫 Hideo Nakata
 ◎编  剧  铃木光司 K?ji Suzuki....novel Ring
        高桥洋 Hiroshi Takahashi....screenplay
 ◎主  演  松岛菜菜子 Nanako Matsushima....浅川玲子Reiko Asakawa
        真田广之 Hiroyuki Sanada  ....高山龙司 Ryuji Takayama
        中谷美纪 Miki Nakatani....高野舞Mai Takano
        竹内结子 Yuko Takeuchi  ....大石智子 Tomoko Oishi 
        佐藤仁美 Hitomi Satowu....雅美Masami Kurahashi
        沼田曜一 Yoichi Numata  ....山村敬 Takashi Yamamura
        松重丰 Yutaka Matsushige....Yoshino
        村松克巳 Katsumi Muramatsu  ....Koichi Asakawa
        大高力也 Rikiya Otaka....Yoichi Asakawa
        雅子 Masako  ....山村志津子 Shizuko Yamamura
        伴大介 Daisuke Ban....Dr. Heihachiro Ikuma
        柳忧怜 Y?rei Yanagi  ....Okazaki
        大岛蓉子 Y?ko ?shima  ....Reiko's Aunt
        志水季里子 Kiriko Shimizu  ....Ryomi Oishi
        渡边裕之 Hiroyuki Watanabe....Hayatsu
        池田真纪 Maki Ikeda  ....Yoko Tsuji
        小市慢太郎 Mantar? Koichi....Town Hall Moderator
        野田真吉 Shinkichi Noda  ....Press Representative
        Kiyoshi Risho....Omiya the Cameraman
        Rie Inou  ....Sadako Yamamura
        Miwako Kaji....Kazue Yamamura
        Yoko Kima  ....Junior High Schoolgirl
        Asami Nagata....Junior High Schoolgirl
        Keiko Yoshida  ....Senior High Schoolgirl
        Yoshiko Matsumaru....Senior High Schoolgirl
        Yoho Naose  ....Senior High Schoolgirl
        Takashi Takayama....Takehiko Nomi
        Chihiro Shirai....Sadako as a Young Girl
        Toshiliko Takeda  ....Yamamura as a Teenager
        Chihiro Shirai  ....Sadako as a Young Girl
        Kazufumi Nakai  ....Press Representative
        李钟浩 Kanehiro Ri....Komiya Kameraman
        挂田诚 Makoto Kaketa  ....Kanrinin
        Hiroyuki Tanabe....Hayatsu
        Yukiko Shimodaira  ....Ch?gakusei C
        Keiko Yoshida  ....K?k?sei A
        Ayumu Naose  ....K?k?sei C
        Toshihiko Takeda....Seinen Jidai no Yamamura
        Shin'ichi Noda  ....Kisha Daihy? A
        Y?ki TakahataMutsuko ?shima
        Taku Kobayashi
        村田博美 Hiromi Murata
        Kazuhiro Yokoyama
        Mizuho Kinoshita
        Toshinori Yoshino 
        Asami Ishikawa
 

 ◎简  介
 
  女高中生友子和同学共同看了一盘来历不明的录像带,七天后,她和她的同学相继死去,这引起了女记者浅川(松岛菜菜子 饰)的关注,她决定调查这个事件的真相。
 
  浅川了解到友子死前曾因看一盘录像带惊吓过度而住院,于是她找到了出租那盘录像带的旅店,也租了那盘没有名字的带子,打开录像机,极度恐怖的画面让浅川情绪几近崩溃。浅川她相信了看过录像带的人七天后就会死去,为了挽回自己的生命,为了了解事实的真相,她找到了她的前夫高山(真田广之 饰)并且复制了一盘录象带决定和她一起研究。而他们只有在七天之内揭开录像带的秘密才能活下去。
 
  高山龙司通过录像带里隐藏的方言以及上面报纸的影象,他们找到了录像带的出处。在这时,浅川的儿子在不明力量的指示下看了录象。他们去了伊豆大岛,在那里了解到是一个有超能力的女孩用意念录下来的,其中都是女孩的怨愤,他们认为只要找到女孩的尸体就可以化解诅咒,他们在四名学生看录象的小屋下找到了那口井,找到了女孩的尸体。可是第二天龙司仍然死了,在龙司力量的提示下,浅川知道了可以真正解除诅咒的方法,就是将录象复制给别人看,为了救自己儿子她决定将录象给自己爸爸看……


 ◎幕  后
 
  《午夜凶铃》改编自日本著名作家铃木光司的作品《七夜怪谈》,这是一部一气呵成绝无冷场的恐怖电影,全片100分钟。其剧情不是血淋淋的恐怖,而是通过制造悬疑气氛抓住观众的心情,并产生幻想,再加上出色的恐怖音效,令观众在观看时紧张的喘不过气来。这部影片98年七月在香港上映时,以总收三千一百万港币成为98年香港目前为止最高票房电影,打破贺岁片《喜剧之王》及《玻璃樽》纪录,连《星球大战首部曲》也难与之匹敌。

   影片中受诅咒的录影带画面给人不祥感觉,出现了好像贞子从井底抬头向上望的模样,断断续续的粗糙影像,仿佛初学摄影者般的构图,既稚拙又复杂的画面完全没有电影符号学的脉络可寻,这加深坐在戏院椅子上观众心中莫名的恐惧;当观众随著贞子从井底往上看时,贞子眼里看到的男人,竟是狠心把自己女儿贞子推下井底的伊熊博士。
 
  据《午夜凶铃》编导高桥洋说,原来诅咒录影带画面上的影像,并非透过摄影镜头拍摄,而是利用特摄,活生生映写在胶卷上的灵异画面,不用摄影镜头而能将心中所想的画面投映至底片的透摄超能力,源自于日本明治时期,御船千鹤子及长尾郁子二位真实存在的透视特异功能者,生于明治19年的御船千鹤子,在日本有千里眼千鹤子之称而闻名,她因为哥哥的一场诱导催眠实验,而在明治41年夏天,利用透视找到一只掉入海中的金戒指而声名大噪,御船千鹤子这一段传闻在电影里,也被改编用在能和海怪交谈的山村志津子身上。

  早期研究日本灵异现象的佼佼者福来有吉博士,也因为与御船千鹤子接触而成为话题人物;他为了证明世界上有特异能力的存在,不惜在御船千鹤子身上下工夫,把她拿来当做自己的最佳实验战利品,让御船千鹤子成为媒体瞩目焦点,一场明治43年9月15日在数百学者面前的实验,御船千鹤子在毫无被告知的情形之下,自己从一千个文字当中挑三至五个单字,然后再去对照学者所准备的五十组成语,她利用透视三次均成功地答对单字,让现场所有人傻眼,但是因为她是背对所有人而让人怀疑她的手去动了手脚,隔日惨遭报纸指称她为诈欺师,年芳廿五岁千鹤子因为受不了媒体批判,忿而饮药自杀。
 
  另一位长尾郁子则是日本首位能利用特异功能,将自己脑里所想画面及文字投摄在影像底片上的传奇人物,福来博士在御船千鹤子的实验失败后,于明治43年找上了当时39岁的长尾郁子,郁子也是经由福来博士的种种实验宣嚷,在媒体面前展现多次不可思议的特异能力,但是也在明治44年1月8日一次实验上的手法遭人侧议,同年二月因为受不了心脏病疾之苦,而步上御船千鹤子后尘。
 
  电影《午夜凶铃》里的贞子,虽然在日本近代史记里并未留下任何相关文献,但是可以隐约旁敲得出来,贞子是极为接近这二位曾呼风唤雨的传奇人物的结合,若是如此,电影里将贞子推下井底的伊熊博士,便是携摩自游走于御船千鹤子和长尾郁子之间的福来友吉博士为原始角色。

 

  General #1
    ID : 1 (0x1)
    Complete name : 00000.m2ts
    Format : BDAV
    Format/Info : Blu-ray Video
    File size : 19.9 GiB
    Duration : 1h 35mn
    Overall bit rate mode : Variable
    Overall bit rate : 29.9 Mbps
    Maximum Overall bit rate : 35.5 Mbps
  Video #4113
    ID : 4113 (0x1011)
    Menu ID : 1 (0x1)
    Format : AVC
    Format/Info : Advanced Video Codec
    Format profile : High@L4.1
    Format settings, CABAC : Yes
    Format settings, ReFrames : 4 frames
    Codec ID : 27
    Duration : 1h 35mn
    Bit rate mode : Variable
    Bit rate : 27.2 Mbps
    Maximum bit rate : 39.5 Mbps
    Width : 1 920 pixels
    Height : 1 080 pixels
    Display aspect ratio : 16:9
    Frame rate : 23.976 fps
    Color space : YUV
    Chroma subsampling : 4:2:0
    Bit depth : 8 bits
    Scan type : Progressive
    Bits/(Pixel*Frame) : 0.546
    Stream size : 18.1 GiB (91%)
  Audio #4352
    ID : 4352 (0x1100)
    Menu ID : 1 (0x1)
    Format : DTS
    Format/Info : Digital Theater Systems
    Format profile : MA / Core
    Muxing mode : Stream extension
    Codec ID : 134
    Duration : 1h 35mn
    Bit rate mode : Variable
    Bit rate : 1 510 Kbps
    Channel(s) : 6 channels
    Channel positions : Front: L C R, Side: L R, LFE
    Sampling rate : 48.0 KHz
    Bit depth : 24 bits
    Compression mode : Lossless / Lossy
    Stream size : 1.00 GiB (5%)
    Language : Japanese
  Text #4608
    ID : 4608 (0x1200)
    Menu ID : 1 (0x1)
    Format : PGS
    Codec ID : 144
    Language : Chinese
  Text #4609
    ID : 4609 (0x1201)
    Menu ID : 1 (0x1)
    Format : PGS
    Codec ID : 144
    Language : Chinese
  Text #4610
    ID : 4610 (0x1202)
    Menu ID : 1 (0x1)
    Format : PGS
    Codec ID : 144
    Language : Japanese

  评论这张
 
阅读(141)| 评论(0)
推荐 转载

历史上的今天

在LOFTER的更多文章

评论

<#--最新日志,群博日志--> <#--推荐日志--> <#--引用记录--> <#--博主推荐--> <#--随机阅读--> <#--首页推荐--> <#--历史上的今天--> <#--被推荐日志--> <#--上一篇,下一篇--> <#-- 热度 --> <#-- 网易新闻广告 --> <#--右边模块结构--> <#--评论模块结构--> <#--引用模块结构--> <#--博主发起的投票-->
 
 
 
 
 
 
 
 
 
 
 
 
 
 

页脚

网易公司版权所有 ©1997-2017