注册 登录  
 加关注
   显示下一条  |  关闭
温馨提示!由于新浪微博认证机制调整,您的新浪微博帐号绑定已过期,请重新绑定!立即重新绑定新浪微博》  |  关闭

逆风飞翔的鸟

追逐风中散落的默契~

 
 
 

日志

 
 
关于我

曾经迷惑于一份距离 曾经感动于一个传说 …… 在仆仆风中 我伸手 抓住你我的缘分 …… “傻傻”的你 能闻到风中 你我的默契吗?!

网易考拉推荐

【幻想】Battlestar.Galactica.Razor.2007.太空堡垒卡拉狄加:利刃  

2012-07-24 10:25:22|  分类: 幻想 |  标签: |举报 |字号 订阅

  下载LOFTER 我的照片书  |
【幻想】Battlestar.Galactica.Razor.2007.太空堡垒卡拉狄加:利刃 - 归鸿 - 逆风飞翔的鸟

◎译  名 太空堡垒卡拉狄加:利刃/星际大争霸(台)/太空堡垒卡拉狄加:利刃之回闪(加长版)
◎片  名 Battlestar Galactica Razor
◎年  代 2007
◎国  家 美国
◎类  别 剧情/动作/战争/科幻/惊悚/幻想
◎语  言 英语
◎字  幕 中文
◎IMDB链接  http://www.imdb.com/title/tt0991178/
◎片  长 104 Mins
◎导  演 Félix Enríquez Alcalá  ....(as Felix Alcala)
◎主  演 米歇尔·佛贝丝 Michelle Forbes  ....Admiral Helena Cain
       翠西亚·希弗 Tricia Helfer  ....Number Six / Gina
       玛丽·麦克唐纳 Mary McDonnell  ....President Laura Roslin
       爱德华·詹姆斯·奥莫斯 Edward James Olmos  ....Admiral William Adama
       Stefan Arngrim  ....Male Captive
       Victor Ayala  ....Man In Cage #2
       Steve Bacic  ....Colonel Jurgen Belzen
       吉米·巴姆博 Jamie Bamber  ....Captain Lee 'Apollo' Adama
       Graham Beckel  ....Colonel Jack Fisk
       Matthew Bennett  ....Aaron Doral (credit only)
       Chandra Berg  ....Little Lucy Cain (credit only)
       Jacob Blair  ....Squad Leader Banzai
       Chris Bradford  ....Ops Officer
       彼特·布莱恩特 Peter Bryant  ....Frank Bruno
       James Callis  ....Dr. Gaius Baltar
       Fulvio Cecere  ....Lieutenant Alastair Thorne
       斯黛芬妮·查韦斯-乔柯布森 Stephanie Chaves-Jacobsen  ....Kendra Shaw (as Sthepanie Jacobsen)
       Nico Samano  ....Young Adama
       Ben Cotton  ....Terrified Man
       Deni DeLory  ....Woman In Cage
       Aaron Douglas  ....Chief Petty Officer Galen Tyrol
       Matt Drake  ....Son #1
       Brad Dryborough  ....Hoshi
       Andrew Dunbar  ....Marine DaSilva
       Dustin Eriksen  ....Son #2
       Peter Fleming  ....Helena's Father (credit only)
       Vincent Gale  ....Peter Laird
       John Hainsworth  ....Man In Cage #1
       Emily Hirst  ....Child In Cage
       Michael Hogan  ....Colonel Saul Tigh
       Alessandro Juliani  ....Lt. Felix Gaeta
       Campbell Lane  ....Hybrid
       Cameron MacLeod  ....Protestor #2
       Kandyse McClure  ....Petty Officer Anastasia Dualla
       Shaker Paleja  ....Hudson
       格雷丝·朴 Grace Park  ....Lt. Sharon 'Boomer' Valerii
       Eileen Pedde  ....Sgt. Mathias
       塔莫·潘尼凯 Tahmoh Penikett  ....Lt. Karl C. 'Helo' Agathon (credit only)
       Joey Pierce  ....Marine Riggs
       Trevor Roberts  ....Protestor #1
       Katee Sackhoff  ....Captain Kara 'Starbuck' Thrace
       Kyra Scott  ....Young Helena Cain (credit only)
       Tyson Stanley  ....Young Marine
       Ingrid Tesch  ....Mother
       Stefanie von Pfetten  ....Showboat
       Allison Warnyca  ....Jaycie McGavin
       Michael Trucco  ....Samuel Anders (credit only)
       约翰·赫德 John Heard  ....Commander Barry Garner (archive footage) (uncredited)
       
 
◎简  介 
 
    《太空堡垒卡拉狄加:利刃》的剧情与2008年4月开播的第四季在情节上有极大地关联。它在两个故事中来回切换,分别是李·阿达玛领导下珀伽索斯的故事和海伦娜·该隐上将所领导的珀伽索斯在赛昂攻击之后发生的故事。同时,以回忆的形式向我们讲述了发生在第一次赛昂战争期间的一些鲜为人知的事情。


◎幕后制作
 
    科幻电视剧《太空堡垒卡拉狄加于2003年12月8日在美国科幻频道上开播迷你剧,之后在2004年10月18日于英国Sky One电视频道上首播第1季。该剧目前已播完三季,已获得包括2006年3项土星奖在内的7项各类大奖,包括5项艾美奖提名在内的11项各类提名,在收视率方面也成为美国科幻频道有史以来最受欢迎的原创剧集。该剧主要叙述的是人类和塞昂人之间的战争,及幸存的五万人类寻找新的家园地球的故事。

  在宇宙中未知的地方有一个由12个人类殖民地组成的星际国家,人类为了方便制造了一种拥有独立思想及感觉的机器人-Cylons为人类服务,但人们怎样也想不到这些本应是帮助人类的机器人竟会调转头对抗自已,Cylons起来反抗人类,人类与自已制造的Cylons之战争便开始……
 
  在经过数十年漫长、死伤无数的血战之后双方停火,Cylons离开了殖民地去建立自己的家园。40年的和平让人类放松了警惕,Cylons制造了一些与人类一模一样的机器人作间碟渗入人类世界并瘫痪了人类的防御系统,摧毁了Battlestar舰队,用核武器将殖民地的城市化为灰烬。Battlestar Galactica是唯一一艘幸存的航母,它在舰长Adama的指挥下带领几十艘各式各样的民船和近5万名人类仅剩的幸存者逃离了殖民地的星系,开始了寻找人类的第13个殖民地-地球-的旅程。

  回顾它上季播出的最后几集,《太空堡垒卡拉狄加》(Battlestar Galactica)仍延续着它难以置信的上升势头:从上世纪七十年代一部普普通通的科幻剧直到成为本世纪最热门的剧集之一。当上一季结尾部分,一群穿着人类衣服的赛昂人(Cylons)出现时,观众的胃口已被这遗留的疑团所高高吊起。但无论多么曲折而紧张,SCI FI频道最后仍会将它引向最终归宿-名叫地球的神秘星球。

  对于那些看完上一季结尾的人来说,他们已经迫不及待想知道接下来会发生什么,毕竟最后一次航行让人觉得很诡异:殖民舰队上的一些成员听到奇怪的音乐,而且突然意识到他们实际上是赛昂人(Cylons)。其间,还有星巴克(Starbuck,凯蒂-萨克霍夫(Katee Sackhoff)饰演)的死而复生,并声称她知道地球在哪。而舰队司令阿达玛(Adama,爱德华-詹姆斯-奥默饰演)也并不确定这位重生的队员是否值得信任。

  最后,编剧为叛变的波塔尔(Baltar,詹姆斯-凯利斯饰演)安排了一个奇怪的终结。有趣而又救世主式似的,暗示了演员凯利斯(Callis)的退出。

  总的来说,对于接下来发生的事件,编剧们仍需构思缜密。上季结尾时引出的悬念,很自然地会使人们猜测,这些赛昂沉睡者是否会继续效忠于他们的舰队,还是在紧要关头加入“烤面包机”(toasters),寻找并给人类世界带来灭亡。

  就像导演格林-拉森(Glen A. Larson)拍摄原作时的设想一样,该剧仍带有鲜明的冷战、乃至现在所谓的反恐怖主义战争思想,与人类外表毫无差异的赛昂人如间谍般混迹在我们中间。继而抛出战争时与安全相抵触的道德问题(即使是在经过毁灭性的打击之后)、宗教狂热的陷阱等。没有在这些问题上高调地夸夸其谈,只是让人自然而然地认识到人之本性。

  《太空堡垒》已经证明它的诞生并不只是意外。

  带着无数追随(或将要追随)它的信徒,《太空堡垒》使chart TV得以大步进军新媒体领域,从webisodes网络剧到通过下载专用工具在SCI FI网站上观看剧情预告。说了这么多,我们唯一希望的,就是即将到来的结局能够值得我们期待。好消息是,如果第一集里有任何暗示,那么剧迷们就可以说“任务完成了”。

 

  General #1
    ID : 1 (0x1)
    Complete name : 00000.m2ts
    Format : BDAV
    Format/Info : Blu-ray Video
    File size : 21.3 GiB
    Duration : 1h 43mn
    Overall bit rate mode : Variable
    Overall bit rate : 29.4 Mbps
    Maximum Overall bit rate : 35.5 Mbps
  Video #4113
    ID : 4113 (0x1011)
    Menu ID : 1 (0x1)
    Format : AVC
    Format/Info : Advanced Video Codec
    Format profile : High@L4.1
    Format settings, CABAC : Yes
    Format settings, ReFrames : 4 frames
    Format settings, GOP : M=3, N=12
    Codec ID : 27
    Duration : 1h 43mn
    Bit rate mode : Variable
    Bit rate : 26.7 Mbps
    Maximum bit rate : 37.0 Mbps
    Width : 1 920 pixels
    Height : 1 080 pixels
    Display aspect ratio : 16:9
    Frame rate : 23.976 fps
    Color space : YUV
    Chroma subsampling : 4:2:0
    Bit depth : 8 bits
    Scan type : Progressive
    Bits/(Pixel*Frame) : 0.537
    Stream size : 19.4 GiB (91%)
    Color primaries : BT.709-5, BT.1361, IEC 61966-2-4, SMPTE RP177
    Transfer characteristics : BT.709-5, BT.1361
    Matrix coefficients : BT.709-5, BT.1361, IEC 61966-2-4 709, SMPTE RP177
  Audio #4352
    ID : 4352 (0x1100)
    Menu ID : 1 (0x1)
    Format : DTS
    Format/Info : Digital Theater Systems
    Muxing mode : Stream extension
    Codec ID : 134
    Duration : 1h 43mn
    Bit rate mode : Constant
    Bit rate : 1 510 Kbps
    Channel(s) : 6 channels
    Channel positions : Front: L C R, Side: L R, LFE
    Sampling rate : 48.0 KHz
    Bit depth : 24 bits
    Compression mode : Lossy
    Stream size : 1.09 GiB (5%)
    Language : English
  Text #4608
    ID : 4608 (0x1200)
    Menu ID : 1 (0x1)
    Format : PGS
    Codec ID : 144
    Language : Chinese
  Text #4609
    ID : 4609 (0x1201)
    Menu ID : 1 (0x1)
    Format : PGS
    Codec ID : 144
    Language : Chinese
  Text #4610
    ID : 4610 (0x1202)
    Menu ID : 1 (0x1)
    Format : PGS
    Codec ID : 144
    Language : English
  Text #4611
    ID : 4611 (0x1203)
    Menu ID : 1 (0x1)
    Format : PGS
    Codec ID : 144
    Language : Spanish
  Text #4612
    ID : 4612 (0x1204)
    Menu ID : 1 (0x1)
    Format : PGS
    Codec ID : 144
    Language : French

  评论这张
 
阅读(128)| 评论(0)
推荐 转载

历史上的今天

在LOFTER的更多文章

评论

<#--最新日志,群博日志--> <#--推荐日志--> <#--引用记录--> <#--博主推荐--> <#--随机阅读--> <#--首页推荐--> <#--历史上的今天--> <#--被推荐日志--> <#--上一篇,下一篇--> <#-- 热度 --> <#-- 网易新闻广告 --> <#--右边模块结构--> <#--评论模块结构--> <#--引用模块结构--> <#--博主发起的投票-->
 
 
 
 
 
 
 
 
 
 
 
 
 
 

页脚

网易公司版权所有 ©1997-2017