注册 登录  
 加关注
   显示下一条  |  关闭
温馨提示!由于新浪微博认证机制调整,您的新浪微博帐号绑定已过期,请重新绑定!立即重新绑定新浪微博》  |  关闭

逆风飞翔的鸟

追逐风中散落的默契~

 
 
 

日志

 
 
关于我

曾经迷惑于一份距离 曾经感动于一个传说 …… 在仆仆风中 我伸手 抓住你我的缘分 …… “傻傻”的你 能闻到风中 你我的默契吗?!

网易考拉推荐

【记录】Whore's.Glory.2011.妓女的荣耀  

2012-07-23 21:47:29|  分类: 记录 |  标签: |举报 |字号 订阅

  下载LOFTER 我的照片书  |
【记录】Whores.Glory.2011.妓女的荣耀 - 归鸿 - 逆风飞翔的鸟

◎译  名 妓女的荣耀 / 我卖身但不卖尊严(港) / 婊子的荣耀
◎片  名 Whore's Glory
◎年  代 2011
◎国  家 俄罗斯
◎语  言 德国  /  奥地利
◎类  别 纪录片
◎字  幕 泰语  /  德语  /  法语
◎IMDB链接  http://www.imdb.com/title/tt1327628
◎片  长 119分钟
◎上映日期  奥地利  Austria  2011年9月9日
           德国  Germany  2011年9月29日
           中国香港  Hong Kong  2011年10月26日......香港亚洲电影节
◎导  演 米歇尔·格拉沃格
◎主  演  性工作者
 
◎影片介绍
 
    影片的导演米歇尔·格拉沃格带着自己的摄影机走访了泰国、孟加拉和墨西哥,记录了当地妓女的真实的生活。他没有从道德角度评价这些妓女的做法和行为,只是从一个旁观者的角度端详着她们的生活、痛苦、需求、奋斗和挣扎。影片中的一些情节可能会遭到某些国家和政府的反对,但是这些情节却能深深打动或刺痛观众的内心。
 
    卖淫在泰国、孟加拉、墨西哥,澳洲纪录片导演米歇尔·葛洛沃克探讨的不是老掉大牙逼良为娼的悲剧,并非走访花街柳巷的风月事,而是从三地回异的两性、婚姻和宗教观念促成至今天的娼妓文化和存在价值。原始本性,有需更有求,她们出卖肉体,生活改善不了,被歧视被剥夺尊严,剩下只是从同是天涯沦落人身上找到一丝丝安慰。从望向「金鱼缸」找泰式风情,到孟加拉红灯区了解男子寻花问柳只因跟发妻满足不到的性欲,至墨西哥妓女不怕死只怕没活干,这位非我族类的影人不戴有色的眼镜,镜头下尊重来自不同国度的每一位性工作者和她们的角色。
 
◎幕后制作
 
  《妓女的荣耀》是米歇尔·格拉沃格“全球化纪录片三部曲”(globalization-documentaries)的最后一部,前两部分别是1998年的《大都市》和2005年的《劳工之死》。本片入围了2011年威尼斯电影节的地平线单元,并摘得评审团大奖。

 

  General #1
    ID : 1 (0x1)
    Complete name : 00000.m2ts
    Format : BDAV
    Format/Info : Blu-ray Video
    File size : 18.1 GiB
    Duration : 1h 54mn
    Overall bit rate mode : Variable
    Overall bit rate : 22.7 Mbps
    Maximum Overall bit rate : 35.5 Mbps
  Video #4113
    ID : 4113 (0x1011)
    Menu ID : 1 (0x1)
    Format : AVC
    Format/Info : Advanced Video Codec
    Format profile : High@L4.1
    Format settings, CABAC : Yes
    Format settings, ReFrames : 4 frames
    Codec ID : 27
    Duration : 1h 54mn
    Bit rate mode : Variable
    Bit rate : 19.9 Mbps
    Maximum bit rate : 38.0 Mbps
    Width : 1 920 pixels
    Height : 1 080 pixels
    Display aspect ratio : 16:9
    Frame rate : 25.000 fps
    Color space : YUV
    Chroma subsampling : 4:2:0
    Bit depth : 8 bits
    Scan type : MBAFF
    Bits/(Pixel*Frame) : 0.384
    Stream size : 15.9 GiB (88%)
    Color primaries : BT.709-5, BT.1361, IEC 61966-2-4, SMPTE RP177
    Transfer characteristics : BT.709-5, BT.1361
    Matrix coefficients : BT.709-5, BT.1361, IEC 61966-2-4 709, SMPTE RP177
  Audio #4352
    ID : 4352 (0x1100)
    Menu ID : 1 (0x1)
    Format : DTS
    Format/Info : Digital Theater Systems
    Format profile : MA / Core
    Muxing mode : Stream extension
    Codec ID : 134
    Duration : 1h 53mn
    Bit rate mode : Variable
    Bit rate : 1 561 Kbps / 1 510 Kbps
    Channel(s) : 6 channels
    Channel positions : Front: L C R, Side: L R, LFE
    Sampling rate : 48.0 KHz
    Bit depth : 16 bits
    Compression mode : Lossless / Lossy
  Audio #4353
    ID : 4353 (0x1101)
    Menu ID : 1 (0x1)
    Format : DTS
    Format/Info : Digital Theater Systems
    Codec ID : 130
    Duration : 1h 53mn
    Bit rate mode : Constant
    Bit rate : 320 Kbps
    Channel(s) : 2 channels
    Channel positions : Front: L R
    Sampling rate : 48.0 KHz
    Bit depth : 16 bits
    Compression mode : Lossy
    Stream size : 260 MiB (1%)
    Language : German
  Text #4608
    ID : 4608 (0x1200)
    Menu ID : 1 (0x1)
    Format : PGS
    Codec ID : 144
    Delay relative to video : 14s 680ms
    Language : Chinese
  Text #4609
    ID : 4609 (0x1201)
    Menu ID : 1 (0x1)
    Format : PGS
    Codec ID : 144
    Delay relative to video : 14s 680ms
    Language : Chinese
  Text #4610
    ID : 4610 (0x1202)
    Menu ID : 1 (0x1)
    Format : PGS
    Codec ID : 144
    Delay relative to video : 7s 880ms
    Language : German

  评论这张
 
阅读(238)| 评论(0)
推荐 转载

历史上的今天

在LOFTER的更多文章

评论

<#--最新日志,群博日志--> <#--推荐日志--> <#--引用记录--> <#--博主推荐--> <#--随机阅读--> <#--首页推荐--> <#--历史上的今天--> <#--被推荐日志--> <#--上一篇,下一篇--> <#-- 热度 --> <#-- 网易新闻广告 --> <#--右边模块结构--> <#--评论模块结构--> <#--引用模块结构--> <#--博主发起的投票-->
 
 
 
 
 
 
 
 
 
 
 
 
 
 

页脚

网易公司版权所有 ©1997-2017