注册 登录  
 加关注
   显示下一条  |  关闭
温馨提示!由于新浪微博认证机制调整,您的新浪微博帐号绑定已过期,请重新绑定!立即重新绑定新浪微博》  |  关闭

逆风飞翔的鸟

追逐风中散落的默契~

 
 
 

日志

 
 
关于我

曾经迷惑于一份距离 曾经感动于一个传说 …… 在仆仆风中 我伸手 抓住你我的缘分 …… “傻傻”的你 能闻到风中 你我的默契吗?!

网易考拉推荐

【亚洲】Love.In.The.Buff.2012.春娇与志明  

2012-07-23 21:26:37|  分类: 亚洲 |  标签: |举报 |字号 订阅

  下载LOFTER 我的照片书  |
【亚洲】Love.In.The.Buff.2012.春娇与志明 - 归鸿 - 逆风飞翔的鸟

◎译  名 春娇与志明/春嬌與志明/志明与春娇2
◎片  名 Love in The Buff
◎年  代 2012
◎国  家 中国香港  
◎类  别 爱情/剧情/喜剧
◎语  言 国语/粤语 
◎IMDB链接  http://www.imdb.com/title/tt2238839/
◎片  长 111Mins
◎导  演 彭浩翔 Ho-Cheung Pang
◎主  演 余文乐 Shawn Yue
       杨千嬅 Miriam Yeung
       杨幂 Mi Yang
       徐峥 Zheng Xu
       谷祖琳 Jo Kuk
       林兆霞 Brenda Lam
       司徒慧焯 Roy Szeto
       谷德昭 Vincent Kok
       陈逸宁 Yat Ning Chan
       詹瑞文 Sui-man Chim
       黄晓明 Xiaoming Huang
       田蕊妮 Kristal Tin
       郑伊健 Ekin Cheng
       王馨平 Linda Wong
       郝蕾 Lei Hao
       王太利 Taili Wang
       邵音音 Yam Yam Siu
       曾国祥 Kwok Cheung Tsang
       尹志文 Jimmy Wan
       彭浩翔 Ho-Cheung Pang
       魏雨琦 Yu-qi Wei
       马诺 Melissa
       
 
◎简  介 
 
  张志明(余文乐 饰)与余春娇(杨千嬅 饰)在一起后,恋情也不可避免由热烈转向平淡,几番龃龉过后,二人平平淡淡、不知不觉地分手了。在此之后,志明接受前老板的邀请,和公公前往北京发展,他很快结识了美丽温柔的空姐尚优优(杨幂 饰),一段新的恋情由此展开。另一方面,春娇的化妆品牌决定关掉香港分店,于是她也和娥姐转战北京。曾经的恋人相见自是几多尴尬,而原以为早已平淡和忘却的情感竟在见面的一刻复萌。虽然志明有优优陪伴,春娇也意外邂逅了体贴稳重的SAM(徐峥 饰),但是他们仍然瞒着另一半偷偷见面,他们小心地保持着距离,心又不由自主地向对方靠近。

    已是从香港转战北京的爱情,将如何收场…… 
 
◎影片花絮
 
  杨千嬅想要爆粗口 余文乐与导演搞暧昧
 
  虽然影片中没了粗口镜头,但杨千嬅却爆料几个人在片场也不会刻意求高雅,总是不乏加料恶搞,“拍完片回去,我都还没习惯,忍不住想和我老公爆粗口。”与《志明与春娇》不同,新片中春娇在感情方面的层次要更丰富,“如果说上一部讲的是相遇和相知,那么这一部则是要探讨相恋和相处”,经历了婚姻的洗礼的杨千嬅笑言演起来格外有感触。
 
  同样面临感情洗礼的还有片中余文乐饰演的志明,这次他不但要克服与自己优柔寡断的性格,还要面对70后老情人和90后小妹妹的艰难抉择。可这份纠结到了杨千嬅眼中却演变成为片场暧昧,“这部影片中有两种暧昧,一个是志明与春娇的暧昧,另一个就是余文乐和彭浩翔的暧昧”。原来是彭导演为了给杨幂做示范,不惜亲身上阵,和余文乐大演亲密戏,牵手拥抱都不在话下。
 
  杨幂接受微博传情 徐峥幽默调戏导演
 
  除了杨千嬅和余文乐,在这一集的《春娇与志明》中,彭浩翔导演还在剧中引入了杨幂和徐峥两位新角色,二人将分别饰演90后女生和一个事业有成的男士。
 
  彭浩翔解释,当这一集中余文乐和杨千嬅的“姐弟恋”出现问题后,他觉得志明一定不想再找“姐姐”了,于是便开始物色漂亮年轻的小姑娘。而有一天他在微薄上看到了杨幂的照片,觉得她很漂亮,好像志明喜欢的feel,于是便关注了杨幂,而杨幂也关注了彭浩翔,并在微博上表示自己也很喜欢《志明与春娇》这部电影,于是二人便在微薄上敲定了这次合作。对于此次在戏中饰演的90后,杨幂表示并非没有压力,但她有许多90后的影迷,自己也是从那个年龄上过来的。
 
  有趣的是,徐峥此次扮演的“老男人”之前曾传出过包括吴彦祖在内的诸多版本,导演开玩笑说:“这个角色最早我找的是汤姆·克鲁斯,他档期不行,后来又找了约翰尼·德普,但我听了约翰尼·德普的中文之后,就决定用徐峥了,反正他们都是一个类型的演员。” 对于和彭浩翔的第一次合作,徐峥坦言自己之前一直很喜欢彭浩翔导演的电影,几乎每一部都看过。为了回应导演的厚爱,他发挥幽默本性说出了令人拍案叫绝的金句,“我不好说是看着导演的电影长大的,但我想说,看完导演的电影,我就长大了。”
 
  “春娇与志明”一词来自台湾的俗语,它不仅仅是一对恋人、一首歌、一部电影,它更象征着都市中处在恋爱中的普世善男信女。
 
【影片制作】
 
  创作背景
   
    彭浩翔钟情京城元素 自诩“太有才了”
 
  影片延续了《志明与春娇》的故事,讲述春娇与志明各自到内地工作后,在北京重新相遇后的爱情经历。这是彭浩翔进军内地的第一部长片,也是他本人的第一部续集电影。据悉,除了徐铮和杨幂等内地演员的加入外,整部片子有三分之二都是在北京取景拍摄的。当被问到是什么理由促使他做出这样的改变时,彭浩翔说:“第二部我把拍摄地点换到了北京,是因为我想把对一个城市的一个新的感觉放进去,影片里很多的灵感也来自于我和我太太的生活。”至于为何不干脆直接选择《志明与春娇2》作为电影的名字,导演回应道,“因为我不喜欢2,我们的电影也不2”。
 
  早前,《志明与春娇》曾因粗口台词而被定为三级片,此次考虑到内地市场的限制,港式粗口和抽烟的镜头都会相对克制。但彭浩翔依旧乐观的告诉媒体,让大家不用担心影片基调,因为不论怎么拍都逃离不了他自己的味道,“因为我太有才了。不看第一部也能懂,第二部更牛逼!”

 

  General #1
    ID : 1 (0x1)
    Complete name : 00000.m2ts
    Format : BDAV
    Format/Info : Blu-ray Video
    File size : 28.2 GiB
    Duration : 1h 51mn
    Overall bit rate mode : Variable
    Overall bit rate : 36.2 Mbps
    Maximum Overall bit rate : 35.5 Mbps
  Video #4113
    ID : 4113 (0x1011)
    Menu ID : 1 (0x1)
    Format : AVC
    Format/Info : Advanced Video Codec
    Format profile : High@L4.1
    Format settings, CABAC : Yes
    Format settings, ReFrames : 4 frames
    Codec ID : 27
    Duration : 1h 51mn
    Bit rate mode : Variable
    Bit rate : 31.4 Mbps
    Maximum bit rate : 34.0 Mbps
    Width : 1 920 pixels
    Height : 1 080 pixels
    Display aspect ratio : 16:9
    Frame rate : 24.000 fps
    Standard : NTSC
    Color space : YUV
    Chroma subsampling : 4:2:0
    Bit depth : 8 bits
    Scan type : Progressive
    Bits/(Pixel*Frame) : 0.630
    Stream size : 24.5 GiB (87%)
    Color primaries : BT.709-5, BT.1361, IEC 61966-2-4, SMPTE RP177
    Transfer characteristics : BT.709-5, BT.1361
    Matrix coefficients : BT.709-5, BT.1361, IEC 61966-2-4 709, SMPTE RP177
  Audio #4352
    ID : 4352 (0x1100)
    Menu ID : 1 (0x1)
    Format : DTS
    Format/Info : Digital Theater Systems
    Format profile : MA / Core
    Muxing mode : Stream extension
    Codec ID : 134
    Duration : 1h 51mn
    Bit rate mode : Variable
    Bit rate : 2 356 Kbps / 1 510 Kbps
    Channel(s) : 8 channels / 6 channels
    Channel positions : Front: L C R, Side: L R, Back: L R, LFE / Front: L C R, Side: L R, LFE
    Sampling rate : 48.0 KHz
    Bit depth : 16 bits
    Compression mode : Lossless / Lossy
    Language : Chinese
  Audio #4353
    ID : 4353 (0x1101)
    Menu ID : 1 (0x1)
    Format : AC-3
    Format/Info : Audio Coding 3
    Codec ID : 129
    Duration : 1h 51mn
    Bit rate : 640 Kbps
    Channel(s) : 5 channels
    Sampling rate : 48.0 KHz
    Compression mode : Lossy
    Stream size : 511 MiB (2%)
    Language : Chinese
  Audio #4354
    ID : 4354 (0x1102)
    Menu ID : 1 (0x1)
    Format : AC-3
    Format/Info : Audio Coding 3
    Codec ID : 129
    Duration : 1h 51mn
    Bit rate : 384 Kbps
    Channel(s) : 2 channels
    Sampling rate : 48.0 KHz
    Compression mode : Lossy
    Stream size : 307 MiB (1%)
    Language : Chinese
  Text #4608
    ID : 4608 (0x1200)
    Menu ID : 1 (0x1)
    Format : PGS
    Codec ID : 144
    Language : Chinese
  Text #4609
    ID : 4609 (0x1201)
    Menu ID : 1 (0x1)
    Format : PGS
    Codec ID : 144
    Language : Chinese
  Text #4610
    ID : 4610 (0x1202)
    Menu ID : 1 (0x1)
    Format : PGS
    Codec ID : 144
    Language : English

  评论这张
 
阅读(167)| 评论(0)
推荐 转载

历史上的今天

在LOFTER的更多文章

评论

<#--最新日志,群博日志--> <#--推荐日志--> <#--引用记录--> <#--博主推荐--> <#--随机阅读--> <#--首页推荐--> <#--历史上的今天--> <#--被推荐日志--> <#--上一篇,下一篇--> <#-- 热度 --> <#-- 网易新闻广告 --> <#--右边模块结构--> <#--评论模块结构--> <#--引用模块结构--> <#--博主发起的投票-->
 
 
 
 
 
 
 
 
 
 
 
 
 
 

页脚

网易公司版权所有 ©1997-2017