注册 登录  
 加关注
   显示下一条  |  关闭
温馨提示!由于新浪微博认证机制调整,您的新浪微博帐号绑定已过期,请重新绑定!立即重新绑定新浪微博》  |  关闭

逆风飞翔的鸟

追逐风中散落的默契~

 
 
 

日志

 
 
关于我

曾经迷惑于一份距离 曾经感动于一个传说 …… 在仆仆风中 我伸手 抓住你我的缘分 …… “傻傻”的你 能闻到风中 你我的默契吗?!

网易考拉推荐

【记录】Crazy.Horse.2011.疯马歌舞秀  

2012-07-23 21:11:48|  分类: 记录 |  标签: |举报 |字号 订阅

  下载LOFTER 我的照片书  |
【记录】Crazy.Horse.2011.疯马歌舞秀 - 归鸿 - 逆风飞翔的鸟

◎译  名 疯马歌舞秀
◎片  名 Crazy Horse
◎年  代 2011
◎国  家 美国/法国
◎类  别 记录
◎IMDB链接  http://www.imdb.com/title/tt2043814/
◎语  言 法语
◎片  长 133 mins 53 seconds
◎导  演 弗雷德里克·怀斯曼 Frederick Wiseman
◎主  演 菲立普·德库弗列 Philippe Decouflé  ....Himself
       菲烈·卡特林 Philippe Katerine  ....Himself
 
 
◎简  介 
 
  直接电影运动的代表人物、纪录片大师弗雷德里克·怀斯曼把镜头对准享誉世界的疯马俱乐部,记录下这些令男人疯狂、让女人羡慕的裸体歌舞秀表演者,以及他们台前幕后的生活。
 
◎幕后制作
 
  世界最著名的无上装艳舞俱乐部、巴黎的“疯马”再度登上银幕。由82岁的美国纪录片名导弗雷德里克·韦斯曼执导的《疯马歌舞秀》威尼斯、多伦多和圣巴斯蒂安电影节上映。影片从年轻的舞蹈家Philippe Decouflé被聘用为新节目编舞开始,向人们展示了“疯马”是如何运作的,以及从舞女到经理、看门大妈等形形色色的人物。韦斯曼是美国60年代“直接电影”运动的主要人物,他的镜头不流露主观性,并且摈弃了采访或者旁白,都是通过海量的拍摄素材在剪辑室里“诞生”一部电影。《疯马歌舞秀》也是这样,影片活色生香,让观众接受了一番美胸和大腿的洗礼,丝毫不会顾忌女权主义者的目光。1996年法国人自己也拍过一部纪录片《疯马秀》,该片因为有着后来走入了主流时尚界的蒂塔·范·提斯而值得特别的瞻仰。
 
  疯马俱乐部和旗下的代表节目裸体歌舞秀起源于1951年,以口味纯正的法式风格和浪漫艳舞而著称。其特色就是将裸体、灯光、布景、舞美相结合,营造出声、光、色、裸的“新境界”。关于疯马歌舞秀的纪录片有很多,从1977年开始,到2010年都有不少部关于歌舞秀和歌舞演员的纪录片和电视节目被制作出来。但是这些电视节目大多带有猎奇和纯粹记录的特色,制作相对粗糙。
 
  纪录片大师弗雷德里克·怀斯曼这次拍摄的《疯马歌舞秀》是他的一部全新的纪录片。在这部纪录片中,弗雷德里克·怀斯曼将放弃他在过去的四十年中长期使用的16mm的胶片带来的粗糙影像,他更换了摄影设备,使用了高清晰度的摄制装置。他的这种风格上的转变是为了捕捉到疯马歌舞秀在电光声上的美轮美奂和歌舞演员们的完美肉体而产生的。弗雷德里克·怀斯曼一共在疯马俱乐部里呆了11周,他和他的摄影师约翰·戴维进了一切可能,拍摄下了歌舞表演以及演员生活的方方面面。或许,这将成为怀斯曼拍摄过的最香艳的纪录片。

 

  General #0
    ID : 0 (0x0)
    Complete name : 00003.m2ts
    Format : BDAV
    Format/Info : Blu-ray Video
    File size : 20.8 GiB
    Duration : 2h 13mn
    Overall bit rate mode : Variable
    Overall bit rate : 22.2 Mbps
    Maximum Overall bit rate : 48.0 Mbps
  Video #4113
    ID : 4113 (0x1011)
    Menu ID : 1 (0x1)
    Format : AVC
    Format/Info : Advanced Video Codec
    Format profile : High@L4.1
    Format settings, CABAC : Yes
    Format settings, ReFrames : 4 frames
    Format settings, GOP : M=3, N=24
    Codec ID : 27
    Duration : 2h 13mn
    Bit rate mode : Variable
    Bit rate : 18.6 Mbps
    Maximum bit rate : 25.0 Mbps
    Width : 1 920 pixels
    Height : 1 080 pixels
    Display aspect ratio : 16:9
    Frame rate : 24.000 fps
    Standard : NTSC
    Color space : YUV
    Chroma subsampling : 4:2:0
    Bit depth : 8 bits
    Scan type : Progressive
    Bits/(Pixel*Frame) : 0.374
    Stream size : 17.4 GiB (84%)
    Color primaries : BT.709-5, BT.1361, IEC 61966-2-4, SMPTE RP177
    Transfer characteristics : BT.709-5, BT.1361
    Matrix coefficients : BT.709-5, BT.1361, IEC 61966-2-4 709, SMPTE RP177
  Audio #4352
    ID : 4352 (0x1100)
    Menu ID : 1 (0x1)
    Format : DTS
    Format/Info : Digital Theater Systems
    Format profile : MA / Core
    Muxing mode : Stream extension
    Codec ID : 134
    Duration : 2h 13mn
    Bit rate mode : Variable
    Bit rate : 2 077 Kbps / 1 510 Kbps
    Channel(s) : 6 channels
    Channel positions : Front: L C R, Side: L R, LFE
    Sampling rate : 48.0 KHz
    Bit depth : 16 bits
    Compression mode : Lossless / Lossy
  Audio #4353
    ID : 4353 (0x1101)
    Menu ID : 1 (0x1)
    Format : AC-3
    Format/Info : Audio Coding 3
    Codec ID : 129
    Duration : 2h 13mn
    Bit rate : 640 Kbps
    Channel(s) : 5 channels
    Sampling rate : 48.0 KHz
    Compression mode : Lossy
    Stream size : 613 MiB (3%)
  Text #4608
    ID : 4608 (0x1200)
    Menu ID : 1 (0x1)
    Format : PGS
    Codec ID : 144
    Delay relative to video : 2s 292ms
  Text #4609
    ID : 4609 (0x1201)
    Menu ID : 1 (0x1)
    Format : PGS
    Codec ID : 144
    Delay relative to video : 2s 292ms

  评论这张
 
阅读(151)| 评论(0)
推荐 转载

历史上的今天

在LOFTER的更多文章

评论

<#--最新日志,群博日志--> <#--推荐日志--> <#--引用记录--> <#--博主推荐--> <#--随机阅读--> <#--首页推荐--> <#--历史上的今天--> <#--被推荐日志--> <#--上一篇,下一篇--> <#-- 热度 --> <#-- 网易新闻广告 --> <#--右边模块结构--> <#--评论模块结构--> <#--引用模块结构--> <#--博主发起的投票-->
 
 
 
 
 
 
 
 
 
 
 
 
 
 

页脚

网易公司版权所有 ©1997-2017