注册 登录  
 加关注
   显示下一条  |  关闭
温馨提示!由于新浪微博认证机制调整,您的新浪微博帐号绑定已过期,请重新绑定!立即重新绑定新浪微博》  |  关闭

逆风飞翔的鸟

追逐风中散落的默契~

 
 
 

日志

 
 
关于我

曾经迷惑于一份距离 曾经感动于一个传说 …… 在仆仆风中 我伸手 抓住你我的缘分 …… “傻傻”的你 能闻到风中 你我的默契吗?!

网易考拉推荐

【亚洲】Troubleshooter.2010.麻烦终结者  

2012-07-02 15:31:06|  分类: 亚洲 |  标签: |举报 |字号 订阅

  下载LOFTER 我的照片书  |
【亚洲】Troubleshooter.2010.麻烦终结者 - 归鸿 - 逆风飞翔的鸟

◎译  名 麻烦终结者/解决士/讨债公司
◎片  名 Troubleshooter
◎年  代 2010
◎国  家 韩国
◎类  别 剧情/动作
◎IMDB链接  http://www.imdb.com/title/tt1846803/
◎语  言 韩语
◎片  长 100 mins 5 seconds
◎导  演 权赫宰 Hyuk-jae Kwon
◎主  演 薛景求 Kyung-gu Sol
       李廷镇 Jeong-jin Lee
       李英勋 Young-hyun Lee
       吴达庶 Dal-su Oh
       文贞姬 Jung-Hee Moon
       宋在河 Jae-ho Song
       金香奇 Hyang-gi Kim
       崔志浩 Ji-ho Chui
       宋清晨 Sae-Beauk Song
       金妍秀 Yeon-soo Kim
       朱进模 Jin-mo Ju
       Sung-min Lee
       Yeong-seo Park
       赵勇进 Yeong-jin Jo
       李茂生 Moo-Saeng Lee
 
      
 ◎简  介 
 
  薛景求在片中的警察业余当起了追债人,专为人处理债务问题,不料一天却被卷入一起杀人事件,被黑社会陷害背上了杀人犯的罪名。为了洗刷罪名,主人公在受到监视偷听的24小时内与恶人展开的生死决斗,
 
  姜泰植本是一个全职警察,却在业余时间“不务正业”,专为别人处理债务问题,追讨各种债务,号称“麻烦终结者”。不料,某日姜泰植卷入一起杀人事件,被黑社会陷害,背负上了杀人犯的罪名。为了还自己以清白,姜泰植被迫按照黑社会势力的要求,制造了一起绑架事件。而这位被绑架者的来头也非同小可……
 
  姜泰植在受到全方位监控的24小时内与恶势力展开了别开生面的生死决斗……


◎幕后制作
 
  柳承莞班底打造
 
  影片由实力派影星薛景求首度挑战动作喜剧,背后的制作团队也引人瞩目。韩国最擅长动作题材的名导柳承莞亲自撰写剧本,并交由其最出色的弟子权赫宰(此前曾多次担任柳承莞的助理导演)执筒完成。权赫宰曾凭借短片《孙子兵法》一片入选mise-en-scne电影节,并斩获动作惊悚单元优秀奖。此次,《麻烦终结者》及动作和诙谐于一身,讲述主人公意外背上杀人嫌疑,并且要在24小时内查出事情真相。影片强调快速的动作感和视觉密实感,在营造畅快淋漓的追击、爆破等场面外,特别制造了颇具有生活气息的动作场面。片中角色相互斗法的工具不再是枪支、利刀等常见冷热兵器,而是生活中常见的起居用品,如晾衣架、橡胶管子、坐便器盖子、电磁炉、椅子腿等,动作设计也不再一味追求血腥刺激,更注重幽默感和应变智慧,随处都有早期成龙喜剧动作片的影子。
 
  薛景求挑战动作喜剧
 
  除此之外,动作片常见的火拼、飞车、跳楼等场面,亦屡见不鲜,这些肢体强度极大的戏份对于擅长内心戏的薛景求来说,不啻前所未有的挑战。拥有傲人票房纪录的殿堂级演技派薛景求从接片后就一再表示,这次的角色不仅外形有突破,人物设置上亦充满新意。从片名看,男主角姜泰植本是一名为他人排除问题的“解决者”,却阴差阳错令自己陷入重重困境,麻烦不断。为了洗刷罪名,姜泰植不得不先稍安勿躁,受制于人,成为幕后黑手的棋子,然后伺机而动,寻求绝地反击。影片的亮点正是“反击”的方式和力度,并通过火爆的动作场面和强大的心理活动表现出来。薛景求所看重的正是主人公在表现挖掘真相时的智慧和险象环生的生存状态。
 
  作为这场精彩群戏的其他角色,型男李廷镇的表演可圈可点。相貌英挺,近来频频在影视剧、广告中往来穿梭的李廷镇此次饰演片中首席反角,完成了从“优雅男子”到“冷血恶男”的完美转型。而在《方子传》中有诙谐表演的吴达秀和宋世碧在片中扮演了一对刑警搭档,调查男主角被诬杀人的疑案,成为这部强力动作片的幽默导火索。
 
  Tiger JK量身打造主题曲
 
  影片虽以强悍的动作场面吸引观众眼球,但令其未映先红的另一原因就是韩国代表HIP-HOP歌手Tiger JK的跨刀助唱。主人公姜泰植在无人可信、无处可藏的情况下,发挥了自己的求生本能,并最终取得胜利的故事与Tiger JK在危机关头绝不服输的性格如出一辙。因此,Tiger JK亲自挑选了歌曲《山水》,这亦是以深度著称、Tiger JK的粉丝们最喜爱的代表作之一。其富有节奏的韵律如同坐过山车般,令人深感畅快淋漓,似乎是专门为影片量身定做般完美切合。特别是“我走了我走了!说走就走!我的力量!我来做!我的力量!”等重复的歌词完美地刻画了随着敌人强大而随之变得更加强大的“麻烦终结者”金泰植的形象,令人如同身临其境。
 

◎花    絮

·影片上映首周末动员54万人次,拉下了盘踞五周的《大叔》登上票房榜榜首。
 
·影片营造了惊心动魄的车辆追击场面。拍摄期间平均一日调动车辆多达7000辆,11条公交线路临时变更,大田市厅前的8条线路五日间全面实行临时交通管制。
 
·影片还呈现了一场别开生面的“水中大战”,即医院走廊的自动洒水装置爆裂而引发的水中混乱奇景。该场面采用360°航拍,耗费了巨大的人力物力。
 
·片中男主角有一场从屋顶高空弹跳场面,薛景求亦亲力亲为,从三层高的屋顶下落,心惊之余不忘高喊“真的是太爽了!”
 


  General #1
    ID : 1 (0x1)
    Complete name : 00000.m2ts
    Format : BDAV
    Format/Info : Blu-ray Video
    File size : 20.4 GiB
    Duration : 1h 40mn
    Overall bit rate mode : Variable
    Overall bit rate : 29.2 Mbps
    Maximum Overall bit rate : 35.5 Mbps
  Video #4113
    ID : 4113 (0x1011)
    Menu ID : 1 (0x1)
    Format : AVC
    Format/Info : Advanced Video Codec
    Format profile : High@L4.1
    Format settings, CABAC : Yes
    Format settings, ReFrames : 4 frames
    Codec ID : 27
    Duration : 1h 40mn
    Bit rate mode : Variable
    Bit rate : 25.6 Mbps
    Maximum bit rate : 30.0 Mbps
    Width : 1 920 pixels
    Height : 1 080 pixels
    Display aspect ratio : 16:9
    Frame rate : 25.000 fps
    Standard : PAL
    Color space : YUV
    Chroma subsampling : 4:2:0
    Bit depth : 8 bits
    Scan type : MBAFF
    Bits/(Pixel*Frame) : 0.493
    Stream size : 17.9 GiB (88%)
    Color primaries : BT.709-5, BT.1361, IEC 61966-2-4, SMPTE RP177
    Transfer characteristics : BT.709-5, BT.1361
    Matrix coefficients : BT.709-5, BT.1361, IEC 61966-2-4 709, SMPTE RP177
  Audio #4352
    ID : 4352 (0x1100)
    Menu ID : 1 (0x1)
    Format : DTS
    Format/Info : Digital Theater Systems
    Format profile : MA / Core
    Muxing mode : Stream extension
    Codec ID : 134
    Duration : 1h 39mn
    Bit rate mode : Variable
    Bit rate : 2 056 Kbps / 1 510 Kbps
    Channel(s) : 6 channels
    Channel positions : Front: L C R, Side: L R, LFE
    Sampling rate : 48.0 KHz
    Bit depth : 16 bits
    Compression mode : Lossless / Lossy
    Language : Korean
  Audio #4353
    ID : 4353 (0x1101)
    Menu ID : 1 (0x1)
    Format : AC-3
    Format/Info : Audio Coding 3
    Codec ID : 129
    Duration : 1s 216ms
    Bit rate : 384 Kbps
    Channel(s) : 2 channels
    Sampling rate : 48.0 KHz
    Compression mode : Lossy
    Stream size : 57.0 KiB (0%)
    Language : Chinese
  Text #4608
    ID : 4608 (0x1200)
    Menu ID : 1 (0x1)
    Format : PGS
    Codec ID : 144
    Language : Chinese
  Text #4609
    ID : 4609 (0x1201)
    Menu ID : 1 (0x1)
    Format : PGS
    Codec ID : 144
    Language : English

  评论这张
 
阅读(146)| 评论(0)
推荐 转载

历史上的今天

在LOFTER的更多文章

评论

<#--最新日志,群博日志--> <#--推荐日志--> <#--引用记录--> <#--博主推荐--> <#--随机阅读--> <#--首页推荐--> <#--历史上的今天--> <#--被推荐日志--> <#--上一篇,下一篇--> <#-- 热度 --> <#-- 网易新闻广告 --> <#--右边模块结构--> <#--评论模块结构--> <#--引用模块结构--> <#--博主发起的投票-->
 
 
 
 
 
 
 
 
 
 
 
 
 
 

页脚

网易公司版权所有 ©1997-2017