注册 登录  
 加关注
   显示下一条  |  关闭
温馨提示!由于新浪微博认证机制调整,您的新浪微博帐号绑定已过期,请重新绑定!立即重新绑定新浪微博》  |  关闭

逆风飞翔的鸟

追逐风中散落的默契~

 
 
 

日志

 
 
关于我

曾经迷惑于一份距离 曾经感动于一个传说 …… 在仆仆风中 我伸手 抓住你我的缘分 …… “傻傻”的你 能闻到风中 你我的默契吗?!

网易考拉推荐

【剧情】Mao's.Last.Dancer.2009.最后的舞者  

2012-07-02 14:45:04|  分类: 剧情 |  标签: |举报 |字号 订阅

  下载LOFTER 我的照片书  |
【剧情】Maos.Last.Dancer.2009.最后的舞者 - 归鸿 - 逆风飞翔的鸟

◎片  名 Mao's Last Dancer
◎译  名 最后的舞者/毛泽东的最后一位舞者/最后的芭蕾/舞遍全球
◎年  代 2009
◎国  家 澳大利亚
◎类  别 剧情
◎语  言 英语
◎字  幕 中文
◎IMDB链接  http://www.imdb.com/title/tt1071812/
◎片  长 118 minutes
◎导  演 布鲁斯·贝尔斯福德 Bruce Beresford
◎主  演 曹驰 Chi Cao  ....Li Cunxin - adult
            阿曼达·舒尔 Amanda Schull  ....Elizabeth Mackey
            陈冲 Joan Chen  ....Niang
            布鲁斯·格林伍德 Bruce Greenwood  ....Ben Stevenson
            凯尔·麦克拉克伦 Kyle MacLachlan  ....Charles Foster
            Alice Parkinson  ....Alice
            杰克·汤普森 Jack Thompson  ....US Federal Judge
            阿登·杨 Aden Young  ....Dilworth
            Christopher Kirby
            Ian Meadows  ....Backstage manager
            克洛伊·特埃考丝 Chloe Traicos  ....Frizzy head girl
            Penne Hackforth-Jones  ....Cynthia
            Sam Anderson  ....Stage Manager
            Suzie Steen  ....Betty Lou
            Laurence Fuller  ....Aspiring Dancer
            Ferdinand Hoang  ....Consul Zhang
            郭承武 Chengwu Guo  ....Li Cunxin - teenage
            Camilla Vergotis  ....Mary McKendry
            王双宝 Shuangbao Wang  ....Dia
            Elia Da Costa  ....Disco Dancer
            Robin Choi  ....Embassy Guard
            Yang Li  ....Shi Dao
            Madeleine Eastoe
            Steven Heathcote
            Tony Hall  ....Office Worker
 

◎简  介 
 
    一个中国北方农村贫苦人家的11岁男孩,因为一个极其偶然的机会,被挑选到北京舞蹈学院学习芭蕾舞。后来又获准来美国学习,并选择留在美国。最后,他离开了他所热爱的芭蕾,成为澳大利亚一名成功的股票经纪人。
 
幕后花絮
 
    影片改编自华人芭蕾舞演员李存信的自传《舞遍全球》。李存信于1961年出生在贫穷的山东青岛农村。11岁时由于机缘巧合被选入北京舞蹈学院学习芭蕾舞。1979年,他作为第一批公派艺术留学生到了美国,后来他选择留在美国生活,最后成为澳大利亚芭蕾舞团的主要演员。
 
    一九六一年出生于青岛农村的李存信十一岁时被江青看中,选中进入北京舞蹈学院学习,进而被派往美国休斯敦芭蕾舞团。李存信在美国找到人生第一份真爱,这促使他在一九八一年回国前夕作出了惊人的决定,为了艺术和爱叛逃。背着“叛逃”的骂名,李存信展开了一段辉煌的芭蕾人生。在休斯敦芭蕾舞团期间,李存信摘取世界芭蕾舞蹈大赛的两银一铜,被《纽约时报》评为世界十大优秀芭蕾舞演员之一。后在澳洲芭蕾舞团担任主要演员。在舞台生涯将要结束前,李存信通过远程授课,取得了股票经纪资格,成功转型。二零零三年,李存信的自传在澳一出版,即轰动西方世界,并在二零零四年十月获尼尔森图书奖。

 

  General #1
    ID : 1 (0x1)
    Complete name : 00000.m2ts
    Format : BDAV
    Format/Info : Blu-ray Video
    File size : 30.7 GiB
    Duration : 1h 57mn
    Overall bit rate mode : Variable
    Overall bit rate : 37.4 Mbps
    Maximum Overall bit rate : 35.5 Mbps
  Video #4113
    ID : 4113 (0x1011)
    Menu ID : 1 (0x1)
    Format : AVC
    Format/Info : Advanced Video Codec
    Format profile : High@L4.1
    Format settings, CABAC : Yes
    Format settings, ReFrames : 4 frames
    Format settings, GOP : M=3, N=12
    Codec ID : 27
    Duration : 1h 57mn
    Bit rate mode : Variable
    Bit rate : 34.4 Mbps
    Maximum bit rate : 37.0 Mbps
    Width : 1 920 pixels
    Height : 1 080 pixels
    Display aspect ratio : 16:9
    Frame rate : 23.976 fps
    Color space : YUV
    Chroma subsampling : 4:2:0
    Bit depth : 8 bits
    Scan type : Progressive
    Bits/(Pixel*Frame) : 0.692
    Stream size : 28.2 GiB (92%)
    Color primaries : BT.709-5, BT.1361, IEC 61966-2-4, SMPTE RP177
    Transfer characteristics : BT.709-5, BT.1361
    Matrix coefficients : BT.709-5, BT.1361, IEC 61966-2-4 709, SMPTE RP177
  Audio #4352
    ID : 4352 (0x1100)
    Menu ID : 1 (0x1)
    Format : DTS
    Format/Info : Digital Theater Systems
    Muxing mode : Stream extension
    Codec ID : 134
    Duration : 1h 57mn
    Bit rate mode : Constant
    Bit rate : 1 510 Kbps
    Channel(s) : 6 channels
    Channel positions : Front: L C R, Side: L R, LFE
    Sampling rate : 48.0 KHz
    Bit depth : 24 bits
    Compression mode : Lossy
    Stream size : 1.24 GiB (4%)
    Language : English
  Text #4608
    ID : 4608 (0x1200)
    Menu ID : 1 (0x1)
    Format : PGS
    Codec ID : 144
    Delay relative to video : 16s 16ms
    Language : Chinese
  Text #4609
    ID : 4609 (0x1201)
    Menu ID : 1 (0x1)
    Format : PGS
    Codec ID : 144
    Delay relative to video : 16s 16ms
    Language : Chinese
  Text #4610
    ID : 4610 (0x1202)
    Menu ID : 1 (0x1)
    Format : PGS
    Codec ID : 144
    Language : English

  评论这张
 
阅读(115)| 评论(0)
推荐 转载

历史上的今天

在LOFTER的更多文章

评论

<#--最新日志,群博日志--> <#--推荐日志--> <#--引用记录--> <#--博主推荐--> <#--随机阅读--> <#--首页推荐--> <#--历史上的今天--> <#--被推荐日志--> <#--上一篇,下一篇--> <#-- 热度 --> <#-- 网易新闻广告 --> <#--右边模块结构--> <#--评论模块结构--> <#--引用模块结构--> <#--博主发起的投票-->
 
 
 
 
 
 
 
 
 
 
 
 
 
 

页脚

网易公司版权所有 ©1997-2017