注册 登录  
 加关注
   显示下一条  |  关闭
温馨提示!由于新浪微博认证机制调整,您的新浪微博帐号绑定已过期,请重新绑定!立即重新绑定新浪微博》  |  关闭

逆风飞翔的鸟

追逐风中散落的默契~

 
 
 

日志

 
 
关于我

曾经迷惑于一份距离 曾经感动于一个传说 …… 在仆仆风中 我伸手 抓住你我的缘分 …… “傻傻”的你 能闻到风中 你我的默契吗?!

网易考拉推荐

【亚洲】Guns.and.Roses.2012.黄金大劫案  

2012-07-21 09:57:50|  分类: 亚洲 |  标签: |举报 |字号 订阅

  下载LOFTER 我的照片书  |
【亚洲】Guns.and.Roses.2012.黄金大劫案 - 归鸿 - 逆风飞翔的鸟

◎译  名  黄金大劫案/黄金谜案
◎片  名 Guns N’Roses/Huang Jin Da Jie An / Guns and Roses
◎年  代 2012
◎国  家 中国
◎类  别 喜剧/动作/ 剧情
◎语  言 普通话
◎字  幕 中文
◎IMDb链接 http://www.imdb.com/title/tt2393829/
◎片  长 1h 50mn
◎导  演 宁浩 Hao Ning
◎主  演 雷佳音 Jiayin Lei ….小东北
            陶虹 Hong Tao ….芳蝶
            程媛媛 Yuanyuan Cheng ….顾茜茜
            郭涛 Tao Guo ….疯爹
            范伟 Wei Fan ….代庖神父
            孙淳 Chun Sun ….白慕容
            刘桦 Hua Liu ….五哥
            山崎敬一 Keiichi Yamasaki ….鸟山幸之助
            董立范 Lifan Dong ….包租婆
            黄渤 Bo Huang ….接头兄弟
            王文 Wen Wang
 

◎简  介
 
    一个小混混在阴差阳错间卷进一桩劫金大案,生死命悬一线,疯狂一触即发??

    为了八吨神秘黄金,混世小太岁、金镖十三郎、满洲第一影后、代庖神父、富家千金,各类人物粉墨登场; 日本侵略军、外国公使、野鸡军团、神秘剧组、黑心包租婆,各方势力虎视眈眈。谁敌谁友?谁明谁暗?谁生谁死? 在一个重兵把守,炮弹都炸不开的金库里,八吨黄金如何被劫走,成为最大悬念。
 
幕后制作
 
男女一号启用新面孔 雷佳音、程媛媛亮相
 
宁浩赞二人表现出色 期待再度点石成金
 
    宁浩现场透露,开机前10天还没有确定男主角,当时他非常焦虑,幸好徐峥给他介绍了一个演员。“我当时在上海,但那个演员在北京拍戏。我就找徐峥要了一段他试戏的视频,当晚他传视频给我,我看了三段就定下来了,这个人就是雷佳音。”宁浩对雷佳音的表现大加赞赏,“他演戏很分裂,既能演小混混,也能演情圣,还能演大英雄,这实在是太难得了。”不过雷佳音对演电影却有不同的感受,他说:“感觉去了地狱一趟。”话剧演员出身的雷佳音说,当时他对电影的表现形式不是特别熟悉,因此当时身心的压力非常大。“不是挨炸就是挨打,不是哭就是笑。而且在在导演心里,他的理解走得比我深,比我远。我要不断追赶,吃尽苦头。”此前,他的大银幕作品仅有一部《高考1977》。
 
    扮演女一号富家女的程媛媛,则有过在李少红版《红楼梦》中 出演“平儿”的经历,不过她在现场表示,自己能参加这部戏的演出,是一个最好的学习机会,而宁浩一旁解释说:“找她来演,就是因为她特别好骗,别人说什么她都信,我戏里的角色就需要这样!”
 
老班底齐助力 黄渤零片酬参演

    宁浩:“既然是朋友,谈钱太伤感情了!”
 
    尽管《黄金大劫案》投资高达5000万,但宁浩并没有把钱花在演员片酬上,为了省钱,他力邀众多之前的合作伙伴低片酬加盟,其中,刘桦、郭涛、岳小军、黄渤、陶虹等都仗义前来助阵,其中最“惨”的还要数“金马影帝”黄渤,他是分文未得,“零片酬”参演。宁浩现场笑着说:“既然是朋友,谈钱就伤感情了,大家都允许我把更多的经费放在了制作上。”
 
    郭涛表示,为了支持宁浩,他形象尽毁。他每天要化4个多小时的妆,多次看过宣传片的人也没法认出郭涛来。郭涛说,演完之后他都觉得挺悲哀的,大家都不知道这个人物是谁演的,他甚至抱怨说:“把我弄成这么个造型,不知道他为啥非要找我来演?”宁浩则称他心目中能演出角色身上那股子疯癫劲儿的演员,非郭涛莫属。
 
    在错过了《疯狂的石头》和《疯狂的赛车》这两部影片的合作后,宁浩终于也与小陶虹合作了一把,当然这次没有了老搭档徐峥,宁浩称自己觉得小陶虹像30年代的美国明星,而且有领袖气质,而这个角色也正是一个以“52楠晓最新高清电影免费下载交际花”身份掩护下的52楠晓最新高清电影免费下载党首领。
 
宁浩:最会演戏的导演当属张艺谋

    希望《黄金大劫案》与《杀生》、《匹夫》票房共赢
 
    宁浩从“疯狂”系列开始,喜欢亲自上阵客串角色,其中还包括其他一些导演的作品,如《刀剑笑》、《桃姐》等。对此,宁浩解释道,每次在片中演一个角色只是为了留下一个印记,“要说导演里面演技最好的,那还得数张艺谋,他可是演过男一号,拿过影帝!”
 
    由于《黄金大劫案》与管虎的《杀生》、杨树鹏的《匹夫》同属征战五一档的国产新片,“票房竞争”这个话题自然无法避免,宁浩诚恳表示:“我和管虎是好朋友,希望大家的电影都好,团结起来,中国电影才有更好的市场。我不关心是不是领跑五一档,我最关心观众是不是满意。”宁浩说。

 

  General #1
    ID : 1 (0x1)
    Complete name : 00000.m2ts
    Format : BDAV
    Format/Info : Blu-ray Video
    File size : 22.6 GiB
    Duration : 1h 50mn
    Overall bit rate mode : Variable
    Overall bit rate : 29.2 Mbps
    Maximum Overall bit rate : 35.5 Mbps
  Video #4113
    ID : 4113 (0x1011)
    Menu ID : 1 (0x1)
    Format : AVC
    Format/Info : Advanced Video Codec
    Format profile : High@L4.1
    Format settings, CABAC : Yes
    Format settings, ReFrames : 4 frames
    Codec ID : 27
    Duration : 1h 50mn
    Bit rate mode : Variable
    Bit rate : 26.9 Mbps
    Maximum bit rate : 35.0 Mbps
    Width : 1 920 pixels
    Height : 1 080 pixels
    Display aspect ratio : 16:9
    Frame rate : 24.000 fps
    Standard : NTSC
    Color space : YUV
    Chroma subsampling : 4:2:0
    Bit depth : 8 bits
    Scan type : Progressive
    Bits/(Pixel*Frame) : 0.541
    Stream size : 20.9 GiB (92%)
    Color primaries : BT.709-5, BT.1361, IEC 61966-2-4, SMPTE RP177
    Transfer characteristics : BT.709-5, BT.1361
    Matrix coefficients : BT.709-5, BT.1361, IEC 61966-2-4 709, SMPTE RP177
  Audio #4352
    ID : 4352 (0x1100)
    Menu ID : 1 (0x1)
    Format : TrueHD
    Muxing mode : Stream extension
    Codec ID : 131
    Duration : 1h 50mn
    Bit rate mode : Variable
    Bit rate : 640 Kbps
    Maximum bit rate : 8 436 Kbps
    Channel(s) : 8 channels
    Channel positions : Front: L C R, Side: L R, Back: L R, LFE
    Sampling rate : 96.0 KHz
    Compression mode : Lossless
    Stream size : 507 MiB (2%)
    Language : Chinese
  Audio #4353
    ID : 4353 (0x1101)
    Menu ID : 1 (0x1)
    Format : AC-3
    Format/Info : Audio Coding 3
    Codec ID : 129
    Duration : 1h 50mn
    Bit rate : 448 Kbps
    Channel(s) : 5 channels
    Sampling rate : 48.0 KHz
    Compression mode : Lossy
    Stream size : 354 MiB (2%)
    Language : Chinese
  Text #4608
    ID : 4608 (0x1200)
    Menu ID : 1 (0x1)
    Format : PGS
    Codec ID : 144
    Language : Chinese
  Text #4609
    ID : 4609 (0x1201)
    Menu ID : 1 (0x1)
    Format : PGS
    Codec ID : 144
    Language : Chinese
  Text #4610
    ID : 4610 (0x1202)
    Menu ID : 1 (0x1)
    Format : PGS
    Codec ID : 144
    Language : English

  评论这张
 
阅读(215)| 评论(0)
推荐 转载

历史上的今天

在LOFTER的更多文章

评论

<#--最新日志,群博日志--> <#--推荐日志--> <#--引用记录--> <#--博主推荐--> <#--随机阅读--> <#--首页推荐--> <#--历史上的今天--> <#--被推荐日志--> <#--上一篇,下一篇--> <#-- 热度 --> <#-- 网易新闻广告 --> <#--右边模块结构--> <#--评论模块结构--> <#--引用模块结构--> <#--博主发起的投票-->
 
 
 
 
 
 
 
 
 
 
 
 
 
 

页脚

网易公司版权所有 ©1997-2017