注册 登录  
 加关注
   显示下一条  |  关闭
温馨提示!由于新浪微博认证机制调整,您的新浪微博帐号绑定已过期,请重新绑定!立即重新绑定新浪微博》  |  关闭

逆风飞翔的鸟

追逐风中散落的默契~

 
 
 

日志

 
 
关于我

曾经迷惑于一份距离 曾经感动于一个传说 …… 在仆仆风中 我伸手 抓住你我的缘分 …… “傻傻”的你 能闻到风中 你我的默契吗?!

网易考拉推荐

【动画】From.Up.on.Poppy.Hill.2011.虞美人盛开的山坡  

2012-07-21 09:54:15|  分类: 动画 |  标签: |举报 |字号 订阅

  下载LOFTER 我的照片书  |
【动画】From.Up.on.Poppy.Hill.2011.虞美人盛开的山坡 - 归鸿 - 逆风飞翔的鸟

◎译  名 虞美人盛开的山坡/红花坂上的海(港)/来自红花坂(台)
◎片  名 From Kokuriko Hill
◎年  代 2011
◎国  家 日本
◎类  别 动画/爱情
◎语  言 国粤日
◎IMDB链接  http://www.imdb.com/title/tt1798188/
◎片  长 91 mins
◎导  演 宫崎吾朗
◎主  演 长泽雅美 Masami Nagasawa  ....松崎海
            冈田准一 Junichi Okada  ....风间俊
            香川照之 Teruyuki Kagawa
            石田百合子 Yuriko Ishida
            风吹淳 Jun Fubuki
            内藤刚志 Takashi Nait?
            风间俊介 Shunsuke Kazama
            大森南朋 Nao Omori
            竹下景子 Keiko Takeshita
            柊瑠美 Rumi H?ragi  ....Sachiko Hirok?ji (voice)
 

◎简  介 
  
    故事发生在昭和38年(1963年),也就是东京奥林匹克前夕。当时的日本正处在变革时期,旧的事物慢慢被淘汰,新生事物源源不断的出现,充满复兴的味道。由于父亲出海后下落不明,忙于工作的母亲也无暇照顾家庭,正在读中学的主人公小松崎海同姐姐、妹妹和弟弟四个人生活在一起。某日,崎海卷入了新闻部风间俊与学生会主席水沼史郎之间的骚乱,从此生活开始变的不再平凡……
 
◎幕后制作
 
  电影《来自虞美人之坡》根据1980年1~8月发表在少女杂志《好朋友(なかよし)》上的同名漫画改编(原著作者:高桥千鹤、佐山哲郎)。故事讲述了20世纪60年代下的横滨,16岁少女和17岁少年一段纯洁的爱情。伴随着东京奥运会召开前夕的喧嚣与吵闹,上世纪日本战后经济高度增长期所特有的躁动、激昂以及海滨小镇清爽的世态情趣一一得以再现。
 
  继吉卜力工作室青年电影人5年计划的首部作品《借东西的小人阿莉埃蒂》(导演米林宏昌)面世之后,在企划阶段就已讨论十多年的《来自虞美人之坡》终于得以搬上一幕。此次担任导演一职的并非新人,而是凭借《地海传奇》正式出道,却也因此饱受各方诟病的宫崎骏的儿子宫崎吾朗。在5年前的处女作中,宫崎吾朗的欠佳表现不仅惹来父亲的不满,也引发了原作者娥苏拉?勒瑰恩(UrsulaK.LeGuin)对电影乃至宫崎骏所率领的吉卜力工作室的质疑。在此之后,吾朗遭到父亲长达5年的雪藏。“这次再失败的话,就辞去导演的职务!”抱着破釜沉舟的觉悟,宫崎吾朗再执动画电影的导筒。故事的背景设在宫崎吾朗尚未出生的1963年,为了准确把握那个时代的气息,他大量参考了当年日活公司拍摄青春映画,如《赤い蕾と白い花》(1962)、《青い山脈》(1963)、《雨の中に消えて》(1963)、《美しい暦》(1963)等,从剧中人物的台词到语气语速都进行了深入揣摩。
 
  作为父亲以及工作室负责人的宫崎骏,虽然起初反对宫崎吾朗担任本片的导演,不过也切实做好了保驾护航的工作。他本人担任了影片的企划、剧本等职务,此外还参与了人物和背景设定、草图绘制等工作,包括影片的概念海报也由宫崎骏本人亲自操刀。而在制作过程中,父子二人更是为了各自的理念展开艰苦卓绝的角力,宫崎吾朗在保有原剧本时代特色和现实性的基础上,对相关场景、对白以及情节基调都做了相应改动,并且进一步强化了“从过去之中诞生未来”这一主题。可以说,这是一部凝结了宫崎父子全部心血的作品。
 
  声优方面,女主角松崎海由曾为游戏《ニノ国 漆黒の魔導士》担任配音的长泽雅美担任,此次是她首次挑战动画长片的配音工作。男主角风间俊则请来在《地海传奇》中便有过合作的冈田准一(V6)担任,以30岁的“高龄”挑战17岁的角色,对冈田来说不啻为一个挑战。除此之外,其他角色则由竹下景子、石田百合子、柊瑠美、风吹纯、内藤刚志、香川照之等吉卜力工作室作品中的常客担当,他们的出现势必给吉卜力的动画迷们带来温暖贴心的感觉。
 
  因《地海传奇》而声名鹊起的手茑葵这回再次与“伯乐”宫崎吾朗携手,为影片献上了主题歌《告别之夏(さよならの夏~コクリコ坂から~)》以及其他3首插入歌。这些曲目的编曲全由名音乐人武部聪志担当,他轻快明朗的Jazz Pop曲风与雀跃昂扬的60年代颇为合拍,同时也为影片吹来了一股充满希望的明亮气息。

    本片于2011年7月16日在全国457块银幕上公映,16、17两日动员约45万入场观看,首周初登场排名第三。
 
◎花絮
 
    本片插曲《上を向いて歩こう》为上世纪60年代流行于日本的金曲,由坂本久演唱。这首歌于1962年引入欧洲,获得广泛好评。后在法国更名为更富有日本风味的《Sukiyaki》,继而风靡世界,一度在Billboard上排名第一,目前已有诸多演唱版本。杜琪峰的影片《真心英雄》亦将此歌作为贯穿全剧的重要元素。
   
    动画版中,女主角的姓由原著中的“小松崎”改成了“松崎”。除此之外,海的母亲名字由“虹江”变成了“良子”,职业由摄像师变成了大学副教授。松崎家的住客北见不仅姓名和职业发生改变,连性别也作了变更。
 
    早年间的宫崎骏侄女在山中小屋度假留下了许多少女漫画杂志,其中《来自虞美人之坡》引起了宫崎骏和制作人铃木敏夫的注意。此后进行了长达十多年的电影化讨论,直到制作《借东西的小人阿莉埃蒂》期间才将拍摄计划提上日程。
 
    当年与《来自虞美人之坡》一同登载在杂志上的还有《侧耳倾听》(导演:近藤喜文),这两部少女纯爱漫画的另一共同点是都没有完成连载。
 
    宫崎吾朗还为片中两首插曲填写了歌词。

    松崎海每天早晨升起的是国际信号旗中的U旗(红白)和W旗(蓝白红),前者代表“贵船将陷入危险状态”,后者代表“本船需要医疗援助”。

    NHK配合本片专门制作了纪录片《两个人的“虞美人之坡”:父与子300日的战争(ふたり『コクリコ坂·父と子の300日戦争~宮崎駿×宮崎吾朗~』)》,片中真实记录了宫崎父子因理念不同而争论的场面。

 

  General #1
    ID : 1 (0x1)
    Complete name : 00000.m2ts
    Format : BDAV
    Format/Info : Blu-ray Video
    File size : 26.1 GiB
    Duration : 1h 30mn
    Overall bit rate mode : Variable
    Overall bit rate : 41.1 Mbps
    Maximum Overall bit rate : 35.5 Mbps
  Video #4113
    ID : 4113 (0x1011)
    Menu ID : 1 (0x1)
    Format : AVC
    Format/Info : Advanced Video Codec
    Format profile : High@L4.1
    Format settings, CABAC : Yes
    Format settings, ReFrames : 2 frames
    Codec ID : 27
    Duration : 1h 30mn
    Bit rate mode : Variable
    Bit rate : 36.4 Mbps
    Maximum bit rate : 40.0 Mbps
    Width : 1 920 pixels
    Height : 1 080 pixels
    Display aspect ratio : 16:9
    Frame rate : 23.976 fps
    Color space : YUV
    Chroma subsampling : 4:2:0
    Bit depth : 8 bits
    Scan type : Progressive
    Bits/(Pixel*Frame) : 0.732
    Stream size : 23.1 GiB (89%)
  Audio #4352
    ID : 4352 (0x1100)
    Menu ID : 1 (0x1)
    Format : DTS
    Format/Info : Digital Theater Systems
    Format profile : MA / Core
    Muxing mode : Stream extension
    Codec ID : 134
    Duration : 1h 30mn
    Bit rate mode : Variable
    Bit rate : 1 561 Kbps / 1 510 Kbps
    Channel(s) : 5 channels
    Channel positions : Front: L C R, Side: L R
    Sampling rate : 48.0 KHz
    Bit depth : 24 bits
    Compression mode : Lossless / Lossy
    Delay relative to video : 8ms
    Language : Japanese
  Audio #4353
    ID : 4353 (0x1101)
    Menu ID : 1 (0x1)
    Format : DTS
    Format/Info : Digital Theater Systems
    Codec ID : 130
    Duration : 1h 30mn
    Bit rate mode : Constant
    Bit rate : 755 Kbps
    Channel(s) : 5 channels
    Channel positions : Front: L C R, Side: L R
    Sampling rate : 48.0 KHz
    Bit depth : 24 bits
    Compression mode : Lossy
    Delay relative to video : 8ms
    Stream size : 489 MiB (2%)
    Language : Chinese
  Audio #4354
    ID : 4354 (0x1102)
    Menu ID : 1 (0x1)
    Format : DTS
    Format/Info : Digital Theater Systems
    Codec ID : 130
    Duration : 1h 30mn
    Bit rate mode : Constant
    Bit rate : 755 Kbps
    Channel(s) : 5 channels
    Channel positions : Front: L C R, Side: L R
    Sampling rate : 48.0 KHz
    Bit depth : 24 bits
    Compression mode : Lossy
    Delay relative to video : 8ms
    Stream size : 489 MiB (2%)
    Language : Chinese
  Text #4608
    ID : 4608 (0x1200)
    Menu ID : 1 (0x1)
    Format : PGS
    Codec ID : 144
    Language : Chinese
  Text #4609
    ID : 4609 (0x1201)
    Menu ID : 1 (0x1)
    Format : PGS
    Codec ID : 144
    Language : Chinese
  Text #4610
    ID : 4610 (0x1202)
    Menu ID : 1 (0x1)
    Format : PGS
    Codec ID : 144
    Language : Chinese
  Text #4611
    ID : 4611 (0x1203)
    Menu ID : 1 (0x1)
    Format : PGS
    Codec ID : 144
    Language : Chinese
  Text #4612
    ID : 4612 (0x1204)
    Menu ID : 1 (0x1)
    Format : PGS
    Codec ID : 144
    Language : Japanese
  Text #4613
    ID : 4613 (0x1205)
    Menu ID : 1 (0x1)
    Format : PGS
    Codec ID : 144
    Duration : 1h 30mn
    Delay relative to video : 7s 136ms
    Language : English
  Text #4614
    ID : 4614 (0x1206)
    Menu ID : 1 (0x1)
    Format : PGS
    Codec ID : 144
    Duration : 1h 30mn
    Delay relative to video : 7s 136ms
    Language : French
  Text #4615
    ID : 4615 (0x1207)
    Menu ID : 1 (0x1)
    Format : PGS
    Codec ID : 144
    Language : Korean
  Text #4616
    ID : 4616 (0x1208)
    Menu ID : 1 (0x1)
    Format : PGS
    Codec ID : 144
    Duration : 1h 30mn
    Delay relative to video : 7s 136ms
    Language : French
  Text #4617
    ID : 4617 (0x1209)
    Menu ID : 1 (0x1)
    Format : PGS
    Codec ID : 144
    Language : Korean

  评论这张
 
阅读(224)| 评论(0)
推荐 转载

历史上的今天

在LOFTER的更多文章

评论

<#--最新日志,群博日志--> <#--推荐日志--> <#--引用记录--> <#--博主推荐--> <#--随机阅读--> <#--首页推荐--> <#--历史上的今天--> <#--被推荐日志--> <#--上一篇,下一篇--> <#-- 热度 --> <#-- 网易新闻广告 --> <#--右边模块结构--> <#--评论模块结构--> <#--引用模块结构--> <#--博主发起的投票-->
 
 
 
 
 
 
 
 
 
 
 
 
 
 

页脚

网易公司版权所有 ©1997-2017