注册 登录  
 加关注
   显示下一条  |  关闭
温馨提示!由于新浪微博认证机制调整,您的新浪微博帐号绑定已过期,请重新绑定!立即重新绑定新浪微博》  |  关闭

逆风飞翔的鸟

追逐风中散落的默契~

 
 
 

日志

 
 
关于我

曾经迷惑于一份距离 曾经感动于一个传说 …… 在仆仆风中 我伸手 抓住你我的缘分 …… “傻傻”的你 能闻到风中 你我的默契吗?!

网易考拉推荐

【亚洲】Floating.City.2012.浮城  

2012-07-21 09:51:59|  分类: 亚洲 |  标签: |举报 |字号 订阅

  下载LOFTER 我的照片书  |
【亚洲】Floating.City.2012.浮城 - 归鸿 - 逆风飞翔的鸟

◎译  名 浮城/浮城大亨
◎片  名 Floating City
◎年  代 2012
◎国  家 中国/中国香港
◎类  别 剧情
◎语  言 国语/粤语
◎IMDB链接  http://www.imdb.com/title/tt2387469
◎片  长 104 Mins
◎导  演 严浩 Ho Yim
◎主  演 郭富城 Aaron Kwok  ....布华泉
       杨采妮 Charlie Yeung  ....阿娣
       鲍起静 Hee Ching Paw  ....泉妈
       何超仪 Josie Ho  ....泉妈
       刘心悠 Annie Liu  ....Fion
       郑家星 Jiaxing Zheng
       鲁振顺 Chun-shun Lo
       陈永泉 Yong-quan Chen
       袁富华 Foo Wa Yuen
       河国荣 Gregory Charles Rivers
       梁祖尧 Joey Leung  ....刘超力
 

◎简  介

  九十年代初期,布华泉(郭富城)才四十岁,已经擢升至英国香港帝国东印度公司的管理阶层,风头直盖洋人,可谓一时无两。他出生于渔民家庭,二十岁才念小学一年级,他去面试的时候,学历一栏上只填上“识字”二字,如何能在往后的日子挣扎成为华人大班,除了凭一己之努力外,还配合了英国将管治香港殖民地的主权交回中国的时间因素。 布华泉的长相也不像是纯种中国人,人们都很诧异为什么在避风塘会出现一个像外国人的渔民?阿泉也很想知道自己身世的秘密,他有六个弟妹,全跟他的长相都不一样,他很想问明原委,但双亲总不肯透露端倪,每次总落得捱打下场。

  一次出海遇到颱风,泉父葬身大海,从此泉妈(何超仪/鲍起静)肩负重责,除了照顾孩子们,还负上很多债项,逼得把子女有的送进孤儿院,有的送给亲戚,自己就到别人船上做工。 这时候,阿泉通过友人刘超力(梁祖尧)的引领,考进了帝国东印度公司做杂役,阿泉可以一边工作,一边读书。阿泉在上升期间,认识了一位由外国回来的时尚职业女性 – Fion(刘心悠),在职场上,这位既漂亮又能干的女士切切实实的帮了阿泉不少。阿泉在事业上拼搏而忽略家庭,新的地位带来了新的烦恼,青梅竹马的妻子阿娣(杨采妮)承受了很多内心的煎熬。
 
  另一方面,泉妈从没有放弃过骨肉团聚的希望,她努力认字,誓要考取船主牌,争取让孩子回到船上一家团聚。这时候已到了1997,香港政权交接前连日暴雨,在英国国旗降下前,阿泉发现了自己样子像外国人的秘密。
 
幕后制作
 
郭富城饰商界枭雄 挑战混血身份演足半世纪
 
  已连夺两届金马影帝的郭富城在演技上愈发娴熟,此番在《浮城大亨》中,郭富城非但首度以现代商界枭雄形象示人,更要从二十岁演到六十岁,如此大幅度的时间跨越是一次全新突破。郭富城在片中饰演的“布华泉”,是一个出生后被疍民人家收养的中英混血儿,为增加可信度,他多数时间都需要将自己的头发染成金黄色,且为演出“布华泉”年长时的外貌神态,他还要每天花费两三个小时化上老妆,届时,观众将会在大银幕看到一个满脸皱纹的郭富城。
 
  除在形象上耳目一新,郭富城在《浮城大亨》中的表演更被导演严浩夸奖为“非常有悟性的好演员”,尤其拍一场着西装走过广场的戏份时,郭富城更对人物的眼神及身体语言精益求精,因此常主动要求再拍一条,最终顺利完成角色演绎。
 
影帝影后首度合作 郭富城鲍起静携手“母子情”
 
  《浮城大亨》以金马影帝郭富城携手金像影后鲍起静,已令观众对两人的“飙戏”演出倍加期待,何况两人此番首度搭档演母子,更叫人信心十足。
 
  片中“布华泉”除与养母相依为命更教养母识字,不少细节尤为温馨动人,与此前许鞍华的《桃姐》有着一些异曲同工之处;此外,尽管是首次合作,但两人直言相当愉快,且越拍越具默契,郭富城更笑言,这是他与鲍起静“暗拼演技”的结果,并相信会得到观众的认可。
 
真人真事改编新作 演绎传奇人物经历
 
  《浮城大亨》的主角“布华泉”改编自真人真事,他前半生命运坎坷,生母被英兵强奸而生下他,自幼在船上长大,生活困苦,成长期间在经历家庭变故、信仰冲击、学识不足等后,他凭努力及毅力考入东印度船坞公司,从办公室小弟一路晋升,最终成为公司的华人董事,缔造了香港的一大商业传奇。

 

  General #1
    ID : 1 (0x1)
    Complete name : 00000.m2ts
    Format : BDAV
    Format/Info : Blu-ray Video
    File size : 20.4 GiB
    Duration : 1h 44mn
    Overall bit rate mode : Variable
    Overall bit rate : 27.9 Mbps
    Maximum Overall bit rate : 35.5 Mbps
  Video #4113
    ID : 4113 (0x1011)
    Menu ID : 1 (0x1)
    Format : AVC
    Format/Info : Advanced Video Codec
    Format profile : High@L4.1
    Format settings, CABAC : Yes
    Format settings, ReFrames : 4 frames
    Codec ID : 27
    Duration : 1h 44mn
    Bit rate mode : Variable
    Bit rate : 25.5 Mbps
    Maximum bit rate : 28.0 Mbps
    Width : 1 920 pixels
    Height : 1 080 pixels
    Display aspect ratio : 16:9
    Frame rate : 24.000 fps
    Standard : NTSC
    Color space : YUV
    Chroma subsampling : 4:2:0
    Bit depth : 8 bits
    Scan type : Progressive
    Bits/(Pixel*Frame) : 0.513
    Stream size : 18.6 GiB (91%)
    Color primaries : BT.709-5, BT.1361, IEC 61966-2-4, SMPTE RP177
    Transfer characteristics : BT.709-5, BT.1361
    Matrix coefficients : BT.709-5, BT.1361, IEC 61966-2-4 709, SMPTE RP177
  Audio #4352
    ID : 4352 (0x1100)
    Menu ID : 1 (0x1)
    Format : TrueHD
    Muxing mode : Stream extension
    Codec ID : 131
    Duration : 1h 44mn
    Bit rate mode : Variable
    Bit rate : 640 Kbps
    Maximum bit rate : 5 814 Kbps
    Channel(s) : 8 channels
    Channel positions : Front: L C R, Side: L R, Back: L R, LFE
    Sampling rate : 96.0 KHz
    Compression mode : Lossless
    Stream size : 479 MiB (2%)
    Language : Chinese
  Audio #4353
    ID : 4353 (0x1101)
    Menu ID : 1 (0x1)
    Format : AC-3
    Format/Info : Audio Coding 3
    Codec ID : 129
    Duration : 1h 44mn
    Bit rate : 640 Kbps
    Channel(s) : 5 channels
    Sampling rate : 48.0 KHz
    Compression mode : Lossy
    Stream size : 479 MiB (2%)
    Language : Chinese
  Text #4608
    ID : 4608 (0x1200)
    Menu ID : 1 (0x1)
    Format : PGS
    Codec ID : 144
    Language : Chinese
  Text #4609
    ID : 4609 (0x1201)
    Menu ID : 1 (0x1)
    Format : PGS
    Codec ID : 144
    Language : English

  评论这张
 
阅读(186)| 评论(0)
推荐 转载

历史上的今天

在LOFTER的更多文章

评论

<#--最新日志,群博日志--> <#--推荐日志--> <#--引用记录--> <#--博主推荐--> <#--随机阅读--> <#--首页推荐--> <#--历史上的今天--> <#--被推荐日志--> <#--上一篇,下一篇--> <#-- 热度 --> <#-- 网易新闻广告 --> <#--右边模块结构--> <#--评论模块结构--> <#--引用模块结构--> <#--博主发起的投票-->
 
 
 
 
 
 
 
 
 
 
 
 
 
 

页脚

网易公司版权所有 ©1997-2017