注册 登录  
 加关注
   显示下一条  |  关闭
温馨提示!由于新浪微博认证机制调整,您的新浪微博帐号绑定已过期,请重新绑定!立即重新绑定新浪微博》  |  关闭

逆风飞翔的鸟

追逐风中散落的默契~

 
 
 

日志

 
 
关于我

曾经迷惑于一份距离 曾经感动于一个传说 …… 在仆仆风中 我伸手 抓住你我的缘分 …… “傻傻”的你 能闻到风中 你我的默契吗?!

网易考拉推荐

【幻想】Brainstorm.1983.头脑风暴  

2012-07-21 09:31:41|  分类: 幻想 |  标签: |举报 |字号 订阅

  下载LOFTER 我的照片书  |
【幻想】Brainstorm.1983.头脑风暴 - 归鸿 - 逆风飞翔的鸟

◎译   名 头脑风暴/尖端大风暴
◎片   名 Brainstorm
◎年   代 1983
◎国   家 美国
◎类   别 惊悚/科幻
◎IMDB链接  http://www.imdb.com/title/tt0085271/
◎语   言 英语
◎字   幕 中文
◎片   长 106 mins 20 seconds
◎导   演 道格拉斯·特鲁姆布 Douglas Trumbull
◎主   演 克里斯托弗·沃肯 Christopher Walken  ....Dr. Michael Anthony Brace
       娜塔利·伍德 Natalie Wood  ....Karen Brace
       路易丝·弗莱彻 Louise Fletcher  ....Dr. Lillian Reynolds
       克里夫·罗伯逊 Cliff Robertson  ....Alex Terson
       Jordan Christopher  ....Gordy Forbes
       Donald Hotton  ....Landan Marks
       Alan Fudge  ....Robert Jenkins
       Joe Dorsey  ....Hal Abramson
       Bill Morey  ....James Zimbach
       Jason Lively  ....Chris Brace
       Darrell Larson  ....Security technician
       Lou Walker  ....Chief
       Stacey Kuhne-Adams  ....Andrea
       John Hugh  ....Animal lab technician
       Ira David Wood III  ....Barry (as David Wood)
       Keith Colbert  ....Dr. Ted Harris
       Jerry Bennett  ....Dr. Janet Bock
       Mary Fran Lyman  ....Realtor
       Jack Harmon  ....Security guard
       Nina Axelrod  ....Simulator technician
       Kelly W. Brown  ....Race car man
       Desiree Ayres  ....Bikini girl #1
       Debby Porter  ....Bikini girl #2
       Alan G. Butler  ....Man at party #1
       Robert Bloodworth  ....Man at party #4
       Georgianne Walken  ....Wendy Abramson
       Jimmy Boyd  ....Col. Howe
       Charlie Briggs  ....Col. Easterbrook
       Ann Lincoln  ....Alex's secretary
       Robert Terry Young  ....Minister on bell tower (as Rev. Robert Terry Young)
       Bill Willens  ....Emergency room doctor
       Jim Burk  ....Lab technician
       Jimmy Casino  ....Tape library technician
       Robert Hippard  ....Screaming man
       John Gladstein  ....Dr. Pederson
       Herbert Hirschman  ....Dr. Graf
       John Vidor  ....Bellhop
       Bill Couch  ....Agent #1
       Robert Gooden  ....Agent #2
       Wallace Merck  ....Agent #3
       Glen Lee  ....Agent #4
       Roger Black  ....Bob Burns
       May Boss  ....Tape library woman (as May Raymond Boss)
       Clay Boss  ....Tape library man
       Peter Harrell  ....Doug
       Susan Kampe  ....Angel
       Tommy J. Huff  ....(as Tommy Huff)
       Ernest Robinson  ....(as Ernie Robinson)
       拉娜·克拉克森 Lana Clarkson  ....Food Fantasy Girl (uncredited)
       埃里克·里夫利 Eric Lively  ....Baby (uncredited)
 

◎简  介 
 
    两位颇有才华的研究人员莉莲(路易丝·弗莱彻Louise Fletcher 饰)和迈克(克里斯托弗·沃肯Christopher Walken 饰),发明了一种可以记录并重放人的现实经历的系统,进入这个系统意味着你能够知道他人在想什么和做什么,甚至重复这种经验。当把“高级大脑功能”加入到了这个系统中后,人们就可以逐字地进入其他人的大脑里,并且重放他(她)们的思维、情感以及所经历的一切。于是,有人开始利用它进行一些匪夷所思的活动,甚至连政府也利用它来获得军事上的秘密。然而事情还不仅于此,这个系统的运用迅速的失去了控制,在实验的过程中,有人开始离奇地死去······
 
    迈克的妻子凯伦(娜塔莉·伍德Natalie Wood 饰)也在这个项目组工作,迈克试图用这个程序去重新接近妻子,同时,其他人则为了寻求更刺激的性经历等目的滥用这个程序。这时,这项技术在军事上巨大的潜在价值被发现了,政府试图把迈克和莉莲赶出这个项目组。显然,政府的兴趣远远大于导弹导航系统,实验室开始制造折磨精神的程序。其中的一个研究人员死了,他死的经历被录制下来,迈克确信他必须重放这盘带子用以纪念研究人员并认为会因此得到启发。而在重放时,另一个研究人员也死了,带子被锁了起来,迈克必须和自己以前的同事们做斗争,政府为了对抗“我们每个人都会经历的最恐怖的东西”让他开始经营他的实验,迈克尔能否经艰苦的努力粉碎阴谋者的企图呢……
 

◎一句话评论
 
The door to the mind is open!
 

◎幕后制作
 
    拍摄过程中,女演员娜塔莉·伍德在影片拍摄接近尾声时意外身亡,制片厂负责人以此事故为由试图停止本片拍摄,称导演道格拉斯·特鲁姆布没有能力完成此片。凭借已签合同,道格拉斯·特鲁姆布坚持拍完此片。他启用一名替身演员,改变一些机位设计,终于拍完了娜塔莉·伍德的所有戏份。由于和制片商之间的冲突,道格拉斯·特鲁姆布在这部影片摄制完成之后离开了好莱坞,转投IMAX旗下。本片获得1984年土星(Saturn)最佳女主角和最佳音乐两项大奖。
 
    本片获得1984年土星(Saturn)最佳女主角和最佳音乐两项大奖。
 


  General #1
    ID : 1 (0x1)
    Complete name : 00000.m2ts
    Format : BDAV
    Format/Info : Blu-ray Video
    File size : 18.4 GiB
    Duration : 1h 46mn
    Overall bit rate mode : Variable
    Overall bit rate : 24.7 Mbps
    Maximum Overall bit rate : 35.5 Mbps
  Video #4113
    ID : 4113 (0x1011)
    Menu ID : 1 (0x1)
    Format : AVC
    Format/Info : Advanced Video Codec
    Format profile : High@L4.1
    Format settings, CABAC : Yes
    Format settings, ReFrames : 2 frames
    Format settings, GOP : M=1, N=10
    Codec ID : 27
    Duration : 1h 46mn
    Bit rate mode : Variable
    Bit rate : 22.2 Mbps
    Width : 1 920 pixels
    Height : 1 080 pixels
    Display aspect ratio : 16:9
    Frame rate : 23.976 fps
    Color space : YUV
    Chroma subsampling : 4:2:0
    Bit depth : 8 bits
    Scan type : Progressive
    Bits/(Pixel*Frame) : 0.447
    Stream size : 16.5 GiB (90%)
  Audio #4352
    ID : 4352 (0x1100)
    Menu ID : 1 (0x1)
    Format : DTS
    Format/Info : Digital Theater Systems
    Muxing mode : Stream extension
    Codec ID : 134
    Duration : 1h 46mn
    Bit rate mode : Constant
    Bit rate : 1 510 Kbps
    Channel(s) : 6 channels
    Channel positions : Front: L C R, Side: L R, LFE
    Sampling rate : 48.0 KHz
    Bit depth : 24 bits
    Compression mode : Lossy
    Stream size : 1.12 GiB (6%)
    Language : English
  Text #4608
    ID : 4608 (0x1200)
    Menu ID : 1 (0x1)
    Format : PGS
    Codec ID : 144
    Language : Chinese
  Text #4609
    ID : 4609 (0x1201)
    Menu ID : 1 (0x1)
    Format : PGS
    Codec ID : 144
    Language : Chinese
  Text #4610
    ID : 4610 (0x1202)
    Menu ID : 1 (0x1)
    Format : PGS
    Codec ID : 144
    Language : English
  Text #4611
    ID : 4611 (0x1203)
    Menu ID : 1 (0x1)
    Format : PGS
    Codec ID : 144
    Language : French
  Text #4612
    ID : 4612 (0x1204)
    Menu ID : 1 (0x1)
    Format : PGS
    Codec ID : 144
    Language : Spanish

  评论这张
 
阅读(171)| 评论(0)
推荐 转载

历史上的今天

在LOFTER的更多文章

评论

<#--最新日志,群博日志--> <#--推荐日志--> <#--引用记录--> <#--博主推荐--> <#--随机阅读--> <#--首页推荐--> <#--历史上的今天--> <#--被推荐日志--> <#--上一篇,下一篇--> <#-- 热度 --> <#-- 网易新闻广告 --> <#--右边模块结构--> <#--评论模块结构--> <#--引用模块结构--> <#--博主发起的投票-->
 
 
 
 
 
 
 
 
 
 
 
 
 
 

页脚

网易公司版权所有 ©1997-2017