注册 登录  
 加关注
   显示下一条  |  关闭
温馨提示!由于新浪微博认证机制调整,您的新浪微博帐号绑定已过期,请重新绑定!立即重新绑定新浪微博》  |  关闭

逆风飞翔的鸟

追逐风中散落的默契~

 
 
 

日志

 
 
关于我

曾经迷惑于一份距离 曾经感动于一个传说 …… 在仆仆风中 我伸手 抓住你我的缘分 …… “傻傻”的你 能闻到风中 你我的默契吗?!

网易考拉推荐

【剧情】Being.Flynn.2012.成为弗林  

2012-07-21 09:27:35|  分类: 剧情 |  标签: |举报 |字号 订阅

  下载LOFTER 我的照片书  |
【剧情】Being.Flynn.2012.成为弗林 - 归鸿 - 逆风飞翔的鸟

◎译  名 成为弗林/衰城烂夜(台)/我的单身爸爸(港)
◎片  名 Being Flynn
◎年  代 2012
◎国  家 美国
◎类  别 喜剧/剧情
◎语  言 英语
◎字  幕 中文
◎IMDB链接  http://www.imdb.com/title/tt0455323/
◎分    级  USA:R
◎发行公司  焦点电影公司
◎上映日期  2012年3月2日
◎片  长 101 mins
◎导  演 保罗·韦兹
◎主  演 保罗·达诺 Paul Dano
            罗伯特·德尼罗 Robert De Niro  ....Jonathan
            朱丽安·摩尔 Julianne Moore  ....Nick's Mother
            奥莉薇·瑟尔比 Olivia Thirlby  ....Denise
            黛尔·迪奇 Dale Dickey  ....Marie
            莉莉·泰勒 Lili Taylor  ....Joy
            维克多·罗塞克 Victor Rasuk  ....Gabriel
            Billy Wirth  ....Travis
            凯瑟琳·沃特斯顿 Katherine Waterston  ....Sarah
 

◎简  介 
 
    本片的编剧和导演是Paul Weitz,故事改编自美国当代作家Nick Flynn的真人真事,也参考了他的小说,而Nick Flynn正正是本片的主角。
   
    故事讲述男主角Nick的父母在他年幼时已离婚,他与母亲相依为命,对亲生父亲的印象,只停留在父亲于狱中给自己写过的百多封信里。然而分开18年,两父子在机缘之下重遇,遂展开一段愈趋恶劣的关系。

    别以为这是一个老掉牙的故事,便觉得一点也不吸引。因为当二人相处的环境是在露宿者之家,儿子是职员,父亲是宿友,便为这个老掉牙的父子故事,徒增很有观赏价值的戏剧元素。

    尤其是这名父亲常自吹自擂有多威风八面、甚么也看不顺眼、每分每秒都狂躁症缠身般吵吵闹闹,便可以想象到父亲为儿子带来多少尴尬场面,二人的关系有多恶劣。

    儿子本身已对父亲有个既有的坏印象,相处之下更令彼此的关系加速恶化。
   
    电影的手法非常了得。
   
    为了配合父子二人都立志成为作家的心愿,一开始以二人自传式的开场白,带出他们各自的遭遇。之后不断交集了Nick与母亲(Julianne Moore 饰)的回忆,由轻松到沉重,渐渐给观众绘画出他的背景版图,让观众了解到他对父亲的憎恨源于为何。
   
    从开始的铺陈,分别讲述一个尖酸刻薄的老人家的故事,以及一个仍未找到人生目标的年轻人如何找到理想的故事。两个活在两条平衡线的人互不相干,但当这两条并行线相遇的时候,引爆点一触即发。因为观众已对Nick的背景瞭如指掌,所以会觉得一切来得合情合理。

 

  General #1
    ID : 1 (0x1)
    Complete name : 00000.m2ts
    Format : BDAV
    Format/Info : Blu-ray Video
    File size : 26.3 GiB
    Duration : 1h 41mn
    Overall bit rate mode : Variable
    Overall bit rate : 37.1 Mbps
    Maximum Overall bit rate : 35.5 Mbps
  Video #4113
    ID : 4113 (0x1011)
    Menu ID : 1 (0x1)
    Format : AVC
    Format/Info : Advanced Video Codec
    Format profile : High@L4.1
    Format settings, CABAC : Yes
    Format settings, ReFrames : 4 frames
    Codec ID : 27
    Duration : 1h 41mn
    Bit rate mode : Variable
    Bit rate : 34.1 Mbps
    Maximum bit rate : 35.0 Mbps
    Width : 1 920 pixels
    Height : 1 080 pixels
    Display aspect ratio : 16:9
    Frame rate : 23.976 fps
    Color space : YUV
    Chroma subsampling : 4:2:0
    Bit depth : 8 bits
    Scan type : Progressive
    Bits/(Pixel*Frame) : 0.685
    Stream size : 24.2 GiB (92%)
  Audio #4352
    ID : 4352 (0x1100)
    Menu ID : 1 (0x1)
    Format : DTS
    Format/Info : Digital Theater Systems
    Muxing mode : Stream extension
    Codec ID : 134
    Duration : 1h 41mn
    Bit rate mode : Constant
    Bit rate : 1 510 Kbps
    Channel(s) : 6 channels
    Channel positions : Front: L C R, Side: L R, LFE
    Sampling rate : 48.0 KHz
    Bit depth : 24 bits
    Compression mode : Lossy
    Stream size : 1.07 GiB (4%)
    Language : English
  Text #4608
    ID : 4608 (0x1200)
    Menu ID : 1 (0x1)
    Format : PGS
    Codec ID : 144
    Language : Chinese
  Text #4609
    ID : 4609 (0x1201)
    Menu ID : 1 (0x1)
    Format : PGS
    Codec ID : 144
    Language : Chinese
  Text #4610
    ID : 4610 (0x1202)
    Menu ID : 1 (0x1)
    Format : PGS
    Codec ID : 144
    Language : English
  Text #4611
    ID : 4611 (0x1203)
    Menu ID : 1 (0x1)
    Format : PGS
    Codec ID : 144
    Language : Spanish
  Text #4612
    ID : 4612 (0x1204)
    Menu ID : 1 (0x1)
    Format : PGS
    Codec ID : 144
    Language : French
  Text #4613
    ID : 4613 (0x1205)
    Menu ID : 1 (0x1)
    Format : PGS
    Codec ID : 144
    Language : Spanish

  评论这张
 
阅读(136)| 评论(0)
推荐 转载

历史上的今天

在LOFTER的更多文章

评论

<#--最新日志,群博日志--> <#--推荐日志--> <#--引用记录--> <#--博主推荐--> <#--随机阅读--> <#--首页推荐--> <#--历史上的今天--> <#--被推荐日志--> <#--上一篇,下一篇--> <#-- 热度 --> <#-- 网易新闻广告 --> <#--右边模块结构--> <#--评论模块结构--> <#--引用模块结构--> <#--博主发起的投票-->
 
 
 
 
 
 
 
 
 
 
 
 
 
 

页脚

网易公司版权所有 ©1997-2017