注册 登录  
 加关注
   显示下一条  |  关闭
温馨提示!由于新浪微博认证机制调整,您的新浪微博帐号绑定已过期,请重新绑定!立即重新绑定新浪微博》  |  关闭

逆风飞翔的鸟

追逐风中散落的默契~

 
 
 

日志

 
 
关于我

曾经迷惑于一份距离 曾经感动于一个传说 …… 在仆仆风中 我伸手 抓住你我的缘分 …… “傻傻”的你 能闻到风中 你我的默契吗?!

网易考拉推荐

【亚洲】A.Chinese.Tall.Story.2005.情癫大圣  

2012-07-02 13:26:44|  分类: 亚洲 |  标签: |举报 |字号 订阅

  下载LOFTER 我的照片书  |
【亚洲】A.Chinese.Tall.Story.2005.情癫大圣 - 归鸿 - 逆风飞翔的鸟

◎译  名 情癫大圣/大话西游之情天大圣
◎片  名 A Chinese Tall Story/Qing dian dai sheng
◎年  代 2005
◎国  家 香港/中国
◎类  别 爱情/动作/奇幻/剧情/科幻/喜剧
◎IMDB链接  http://www.imdb.com/title/tt0469050/
◎语  言 粤语
◎字  幕 中文
◎片  长 103 mins 20 seconds
◎导  演 刘镇伟 Jeffrey Lau
◎主  演 谢霆锋 Nicholas Tse ....唐三藏
       蔡卓妍 Charlene Choi ....岳美艳
       范冰冰 Bingbing Fan ....公主
       陈柏霖 Berlin Chen ....孙悟空
       关智斌 Kenny Kwan ....猪八戒
       张致恒 Steven Cheung ....沙僧
       梁洛施 Isabella Leung ....红孩儿 The Red Child
       元华 Wah Yuen ....龟丞相
       惠英红 Kara Hui ....傻萍
       刘家辉 Gordon Liu ....玉帝
       谭耀文 Patrick Tam ....暴龙
       黄一飞 Yut Fei Wong ....蜘蛛王
       李健仁 Kin-Yan Lee ....青蛇
       黎耀祥 Yiu-Cheung Lai ....蜥王
       钟镇涛 Kenny Bee ....众生相
       邱月清 Mondi Yau ....众生相
       陈惠敏 Wai-Man Chan ....众生相
       刘以达 Tats Lau ....众生相
       戴娇倩 Shirley Dai ....蜥后
       San Kao
       Keung Lee
       罗军 Guan Lo
       雷楚雄 Chu-Xiong Lei ....将军甲
       黄永明 Wing-ming Wong ....将军乙
       国建勇 Jianyong Guo ....将军丙
 
◎简  介 
 
  当五百年前至尊宝对紫霞仙子痴情一片,口口声声说:“爱你一万年。”世人皆知。当唐僧也遭遇爱情,是不是会像至尊宝样也说爱你一万年呢? 尽管爱一个人并没有罪,情救世人,这一对痴情男女最终被打落凡间。佛祖将美艳化为白马,伴随庸僧重新开始了九九八十一难,走上了漫漫西游路……
 
  五百年前西域一带有个传说,一个来自中土的和尚唐三藏将会带着他的三个徒弟去一个叫莎车城的地方,取一批已经寄存了很多个世纪的远古经文,传说中这些经文能让世人放下屠刀,不再残杀。而莎车城,就是取经的最后一站。故事就从这里开始。
 
  唐僧孙悟空、猪八戒和沙僧一行四人历经千辛万苦来到了莎车城,谁也没想到,在盛大欢迎仪式的背后潜伏着巨大的危机。除了唐僧,其余三人皆在莎车城被树妖所擒。唐僧只得设法营救,不料被蜥蜴妖美艳所擒,美艳对唐僧一见钟情,从此天天与其痴缠,终于让唐僧掉进了自己的爱情圈套,被屏蔽的广告并犯下天条。最后终于这一对痴情男女终被打落凡间,美艳化为白马,陪伴唐僧开始了九九八十一难的西游记,普救世人……
 
第1站:混战千年虫妖
 
  唐三藏师徒四人在莎车城外看到男男女女载歌载舞列队欢迎,却不知其实千年虫妖劫走了莎车城的所有小孩,要莎车城的人以唐僧师徒交换。悟空识破诡计后,一场混战开始,孙悟空用金刚丝裹住唐僧,将他远远掷出。分别之际,他将金箍棒交给师父。裹着金刚丝的唐三藏消失在天际之后,大开杀戒的孙悟空三人被虫妖拿下。
 
第2站:遭遇妖女、美女各一名
 
  唐三藏降落在了恒河区沼泽地的村落里,这里住着一群快乐的妖怪。妖怪们都在奔走相告宇宙间著名的情圣“孙悟空(因唐僧拿着金箍棒,被误认为孙悟空)”从天而降。为了能用“孙悟空”吸引唐三藏,妖怪们派蜥蜴妖中最丑的女妖来看守“孙悟空”。醒来的唐三藏第一眼就看到了女妖岳美艳。几天后,唐三藏在岳美艳生活的洞里发现了一个雪白的大蛋。打开蛋壳,他看到了一个美得惊人的女子蜷伏其中,这是外星人小善。
 
  一次在梦中,唐三藏无意说出梦话,让岳美艳发现了他是唐三藏的秘密。本欲吃下唐僧肉的岳美艳忽然发现自己无法对他下手,发现自己已经爱上了他。此时,虫妖搜索唐三藏的踪迹来到了岳美艳的住处,两人情急之下坐着金箍棒逃到东海边上。
 
第3站:勇闯南天门
 
  失了定海神针(金箍棒)的龟丞相从海中升起,欲索回金箍棒。唐三藏与岳美艳联手说得龟丞相自杀死,东海龙王率领虾兵蟹将前来讨命,两人再度借助金箍棒逃到了南天门,又闯祸打死了四大天王,再度逃走。
 
  村落里的妖怪们发现了“孙悟空”就是唐三藏的秘密,岳美艳却说自己已经对唐三藏下毒,要一个月之后才能解毒。她也希望通过这一个月,让唐三藏真的变成妖,留在自己身边,并安排了种种计谋让唐三藏“堕落”。唐三藏果然性格大变,决定与妖为伍。一天,他与从蛋中出来的小善攀谈,得知她是外星人的公主,原来曾生活在地球,如今为了躲婚再次来到地球。小善说自己爱上了第一个探头到蛋中来看她的人,唐三藏暗暗想:“那不就是我吗?”
 
第4站:爱情警报!星球大战!
 
  一次偶然,唐三藏知道了岳美艳设计欺骗自己,怒斥岳美艳后告诉她,自己不再爱她。并和小善公主一起去救徒弟。伤心的岳美艳黯然留下后发现自己也不是妖,而是外星人遗弃的孩子。岳美艳戴上属于自己的信物,变身成为真正美艳的女子。变身后的岳美艳立刻冲向虫妖巢穴,加入了唐三藏和小善的战团。一场大战后,孙悟空三人获救。小善公主说出自己爱的是岳美艳,并希望她和自己一起回到外星球,最后却独自乘飞船离开。
 
第5站:如来佛祖现身
 
  玉帝决定审判杀死四大天王的岳美艳,唐三藏忽然领悟心中真爱,为了美艳大闹天宫。如来佛祖现身,向唐三藏讲述了真爱的要义。为了惩罚冒犯天规的岳美艳,也为了让凡心未定的师徒四人修成正果,如来将岳美艳变成白龙马,让唐三藏重新走上取经路。影片的结尾处,唐三藏追着生气的白龙马一路小跑,自言自语地解释着自己种种不是,一人一马走向西方。
 

◎幕后制作
 
  这部电影由西部电影集团股份有限公司、华谊兄弟影业公司及英皇电影联合拍摄,作为《大话西游》终结篇成为了2005年圣诞档期的电影热点之一。很多人的期待有希望也有失望,首先故事非常天马行空,这也延续了《大话西游》的一贯作风,但所有的笑料都有似曾相识的感觉,因此还是有些老套。片中运用了大量的科技手段,甚至有一些科幻片的因素在其中,令人眩目。不过值得一提的是配乐,使得影片还是有许多出彩的地方。总之,这部电影没有想象中的不知所云,当然也没有想象中的令人回味了。

 

  General #1
    ID : 1 (0x1)
    Complete name : 00000.m2ts
    Format : BDAV
    Format/Info : Blu-ray Video
    File size : 15.4 GiB
    Duration : 1h 48mn
    Overall bit rate mode : Variable
    Overall bit rate : 20.2 Mbps
    Maximum Overall bit rate : 35.5 Mbps
  Video #4113
    ID : 4113 (0x1011)
    Menu ID : 1 (0x1)
    Format : AVC
    Format/Info : Advanced Video Codec
    Format profile : High@L4.1
    Format settings, CABAC : Yes
    Format settings, ReFrames : 4 frames
    Codec ID : 27
    Duration : 1h 43mn
    Bit rate mode : Variable
    Bit rate : 16.8 Mbps
    Maximum bit rate : 24.0 Mbps
    Width : 1 920 pixels
    Height : 1 080 pixels
    Display aspect ratio : 16:9
    Frame rate : 24.000 fps
    Standard : PAL
    Color space : YUV
    Chroma subsampling : 4:2:0
    Bit depth : 8 bits
    Scan type : Progressive
    Bits/(Pixel*Frame) : 0.339
    Stream size : 12.2 GiB (79%)
    Color primaries : BT.709-5, BT.1361, IEC 61966-2-4, SMPTE RP177
    Transfer characteristics : BT.709-5, BT.1361
    Matrix coefficients : BT.709-5, BT.1361, IEC 61966-2-4 709, SMPTE RP177
  Audio #4352
    ID : 4352 (0x1100)
    Menu ID : 1 (0x1)
    Format : DTS
    Format/Info : Digital Theater Systems
    Format profile : HRA / Core
    Muxing mode : Stream extension
    Codec ID : 133
    Duration : 1h 43mn
    Bit rate mode : Constant
    Bit rate : 2 560 Kbps / 1 510 Kbps
    Channel(s) : 6 channels
    Channel positions : Front: L C R, Side: L R, LFE
    Sampling rate : 48.0 KHz
    Bit depth : 24 bits
    Compression mode : Lossy
    Stream size : 1.85 GiB (12%)
    Language : Chinese
  Text #4608
    ID : 4608 (0x1200)
    Menu ID : 1 (0x1)
    Format : PGS
    Codec ID : 144
    Language : Chinese
  Text #4609
    ID : 4609 (0x1201)
    Menu ID : 1 (0x1)
    Format : PGS
    Codec ID : 144
    Language : French

  评论这张
 
阅读(120)| 评论(0)
推荐 转载

历史上的今天

在LOFTER的更多文章

评论

<#--最新日志,群博日志--> <#--推荐日志--> <#--引用记录--> <#--博主推荐--> <#--随机阅读--> <#--首页推荐--> <#--历史上的今天--> <#--被推荐日志--> <#--上一篇,下一篇--> <#-- 热度 --> <#-- 网易新闻广告 --> <#--右边模块结构--> <#--评论模块结构--> <#--引用模块结构--> <#--博主发起的投票-->
 
 
 
 
 
 
 
 
 
 
 
 
 
 

页脚

网易公司版权所有 ©1997-2017