注册 登录  
 加关注
   显示下一条  |  关闭
温馨提示!由于新浪微博认证机制调整,您的新浪微博帐号绑定已过期,请重新绑定!立即重新绑定新浪微博》  |  关闭

逆风飞翔的鸟

追逐风中散落的默契~

 
 
 

日志

 
 
关于我

曾经迷惑于一份距离 曾经感动于一个传说 …… 在仆仆风中 我伸手 抓住你我的缘分 …… “傻傻”的你 能闻到风中 你我的默契吗?!

网易考拉推荐

【剧情】Office.Romance.1977.办公室的故事  

2012-07-21 11:53:08|  分类: 剧情 |  标签: |举报 |字号 订阅

  下载LOFTER 我的照片书  |
【剧情】Office.Romance.1977.办公室的故事 - 归鸿 - 逆风飞翔的鸟

◎片  名 Office Romance
◎中 文 名 办公室的故事
◎年  代 1977
◎国  家 前苏联
◎类  别 喜剧/浪漫
◎语  言 俄语
◎IMDB链接 http://www.imdb.com/title/tt0076727/
◎片  长 2:36:40.265 (h:m:s.ms)
◎导  演 埃利达尔·梁赞诺夫 Eldar Ryazanov
◎主  演 Andrei Myagkov  ....Novoseltsev
       Alisa Frejndlikh  ....Kalugina
       奥列加·巴希拉什维利 Oleg Basilashvili  ....Samokhvalov
       Svetlana Nemolyayeva  ....Olga
       Liya Akhedzhakova  ....Verochka
       Lyudmila Ivanova  ....Shura
       Pyotr Shcherbakov
       Mariya Vinogradova
       Georgi Burkov  ....Zavhoz
       Z. Isayeva  ....(as Z. Isayeva)
       Pegas  ....Winged Horse
 

◎简  介 
 
    某轻工局局长卡卢金娜是个性格孤僻,言行和外表都有点男性化的怪女人。职员们背后都叫她冷血动物。统计员诺瓦谢利采夫学生时代是个才华出众的青年,但是现在却变得穷困潦倒,未老先衰,唯唯诺诺。然而这两个地位、性格相差悬殊的人经过几次碰撞之后,却都显露出人性的本色和性格的闪光点。
 
    在副局长家里作客,诺瓦谢利采夫按照老同学副局长的主意主动接近卡卢金娜,他笨拙的纠缠却激怒了女局长,并且遭到申斥,他却一反平日懦弱,竟对女局长进行尖锐的批评和无情的讥讽。第二天又是一场舌剑唇枪。但恰恰是这些话使女局长对自己有了新的认识,使她的心理得到复归,局长一反常态,从衣着打扮到待人接物都以一个可亲近的女性形象出现在人们中间,并对诺瓦谢利采夫产生了爱情。
 
    恰在这时与诺瓦谢利采夫产生矛盾的副局长告诉女局长,诺的接近只是为了得到处长的职位,女局长非常失望的把诺瓦谢利采夫叫来,宣布委以处长之职。诺瓦谢利采夫被激怒了,提出了辞呈。不过最后没有不欢而散,两颗孤独的心终于靠在了一起。
 
幕后制作
 
    梁赞诺夫《爱情、音乐、喜剧三步曲》的第二部。故事背景是机关生活,反映了不同阶层人的心理,触及了中年人的孤独问题。本片让多少国人为之陶醉,甚至疯狂,幽雅的配乐、动人的故事、不打不相识的爱情、官僚主义的背景,所有的元素都融化在这个岁月不会磨灭的历久常新的爱情小品之中。
 
    《办公室的故事》是梁赞诺夫导演的《爱情、音乐、喜剧三步曲》的第二部。第一部是1976年拍摄的《命运的捉弄》曾得过前苏联国家奖;第三部是《两个人的车站》。梁赞诺夫的影片打破了过去喜剧片的传统,他把音乐片、抒情片、惊险片、侦探片等能为只所用的东西全融合在自己的影片中,看了之后既不叫人哈哈大笑,也不要人哭湿两条手绢,这种“不纯的喜剧”开创了前苏联喜剧的新路子。
 
    剧中的男主人公原来显得非常胆怯,什么也不敢说。本来想讨好女局长,结果却事得其反,到后来比谁都勇敢,居然当面挖苦女局长。而女局长本来是个不通人情的样子,最后竟判若两人,很懂感情对人也很关心。这部影片充满了作者对这两个单身人的孤独不幸的关怀,这是一般喜剧所没有的。
 
    梁赞诺夫说过,他就是让人在银幕上看到平时看不到的机关生活。所以这部影片是在整个机关生活的大背景下来写这两个人,人和整个环境相连系,个人生活和社会生活交织在一起,真实性更强了。影片中反映了不同阶层人的普遍心理,触及了生活中普遍存在的中年人的孤独问题,表演形式质朴无华。
 
    影片中的歌词讲到四季变化是一种常态,我们就应该适应这种变化,和自然融合。作为社会的人,人与人之间又产生了无形的隔阂,要打破这种隔阂,就应该更好的认识自身,影片中通过对男女主人公矛盾冲突的揭示,最终达到两者的和谐,是很有内在和哲理的。
 
    《办公室的故事》这样的喜剧是一种尝试和创新,喜剧不好拍,需要有才华和加倍的努力,毕竟有时让人笑比让人落泪难得多。

 

  General #1
    ID : 1 (0x1)
    Complete name : 00000.m2ts
    Format : BDAV
    Format/Info : Blu-ray Video
    File size : 27.7 GiB
    Duration : 2h 36mn
    Overall bit rate mode : Variable
    Overall bit rate : 25.3 Mbps
    Maximum Overall bit rate : 35.5 Mbps
  Video #4113
    ID : 4113 (0x1011)
    Menu ID : 1 (0x1)
    Format : AVC
    Format/Info : Advanced Video Codec
    Format profile : High@L4.1
    Format settings, CABAC : Yes
    Format settings, ReFrames : 4 frames
    Codec ID : 27
    Duration : 2h 36mn
    Bit rate mode : Variable
    Bit rate : 22.4 Mbps
    Maximum bit rate : 25.0 Mbps
    Width : 1 920 pixels
    Height : 1 080 pixels
    Display aspect ratio : 16:9
    Frame rate : 23.976 fps
    Standard : NTSC
    Color space : YUV
    Chroma subsampling : 4:2:0
    Bit depth : 8 bits
    Scan type : Progressive
    Bits/(Pixel*Frame) : 0.450
    Stream size : 24.5 GiB (88%)
    Color primaries : BT.709-5, BT.1361, IEC 61966-2-4, SMPTE RP177
    Transfer characteristics : BT.709-5, BT.1361
    Matrix coefficients : BT.709-5, BT.1361, IEC 61966-2-4 709, SMPTE RP177
  Audio #4352
    ID : 4352 (0x1100)
    Menu ID : 1 (0x1)
    Format : DTS
    Format/Info : Digital Theater Systems
    Format profile : MA / Core
    Muxing mode : Stream extension
    Codec ID : 134
    Duration : 2h 36mn
    Bit rate mode : Variable
    Bit rate : 1 561 Kbps / 1 510 Kbps
    Channel(s) : 6 channels
    Channel positions : Front: L C R, Side: L R, LFE
    Sampling rate : 48.0 KHz
    Bit depth : 24 bits
    Compression mode : Lossless / Lossy
    Language : Russian
  Audio #4353
    ID : 4353 (0x1101)
    Menu ID : 1 (0x1)
    Format : AC-3
    Format/Info : Audio Coding 3
    Mode extension : CM (complete main)
    Format settings, Endianness : Big
    Codec ID : 129
    Duration : 3s 456ms
    Bit rate mode : Constant
    Bit rate : 384 Kbps
    Channel(s) : 6 channels
    Channel positions : Front: L C R, Side: L R, LFE
    Sampling rate : 48.0 KHz
    Bit depth : 16 bits
    Compression mode : Lossy
    Stream size : 162 KiB (0%)
    Language : Chinese
  Text #4608
    ID : 4608 (0x1200)
    Menu ID : 1 (0x1)
    Format : PGS
    Codec ID : 144
    Language : Chinese
  Text #4609
    ID : 4609 (0x1201)
    Menu ID : 1 (0x1)
    Format : PGS
    Codec ID : 144
    Language : Chinese

  评论这张
 
阅读(191)| 评论(0)
推荐 转载

历史上的今天

在LOFTER的更多文章

评论

<#--最新日志,群博日志--> <#--推荐日志--> <#--引用记录--> <#--博主推荐--> <#--随机阅读--> <#--首页推荐--> <#--历史上的今天--> <#--被推荐日志--> <#--上一篇,下一篇--> <#-- 热度 --> <#-- 网易新闻广告 --> <#--右边模块结构--> <#--评论模块结构--> <#--引用模块结构--> <#--博主发起的投票-->
 
 
 
 
 
 
 
 
 
 
 
 
 
 

页脚

网易公司版权所有 ©1997-2017