注册 登录  
 加关注
   显示下一条  |  关闭
温馨提示!由于新浪微博认证机制调整,您的新浪微博帐号绑定已过期,请重新绑定!立即重新绑定新浪微博》  |  关闭

逆风飞翔的鸟

追逐风中散落的默契~

 
 
 

日志

 
 
关于我

曾经迷惑于一份距离 曾经感动于一个传说 …… 在仆仆风中 我伸手 抓住你我的缘分 …… “傻傻”的你 能闻到风中 你我的默契吗?!

网易考拉推荐

【亚洲】Love.for.All.Seasons.2003.百年好合  

2012-07-21 11:36:14|  分类: 亚洲 |  标签: |举报 |字号 订阅

  下载LOFTER 我的照片书  |
【亚洲】Love.for.All.Seasons.2003.百年好合 - 归鸿 - 逆风飞翔的鸟

◎译  名 Love for All Seasons
◎片  名 百年好合
◎年  代 2003
◎国  家 香港
◎类  别 喜剧
◎IMDB链接  http://www.imdb.com/title/tt00374009/
◎语  言 粤语/普通话
◎字  幕 中文
◎片  长 92 mins 48 seconds
◎导  演 杜琪峰 Johnny To
       韦家辉 Ka-Fai Wai
◎主  演 郑秀文 Sammi Cheng  ....May
       古天乐 Louis Koo  ....Tiger Hung
       李冰冰 Bingbing Li  ....Li Mo Shau
       林雪 Suet Lam
       韩君婷 Belinda Hamnett  ....Cat
       张锦程 Emotion Cheung
       李枫 Fung Li  ....Tiger's mum
       夏雨 Yu Ha  ....Tiger's dad
       颜颖思 Rachel Ngan  ....Police Woman
 
      
◎简  介  
 
  香港著名富豪洪飞虎(古天乐 饰)号称“伤女王”,因太过花心伤女无数而得名,并终于留下病症(不能小便)在屡次求医无效后,经朋友人介绍,便不远千里来到曾一度与少林、武当齐名的峨眉山求医。
 
  峨眉掌门目前是一位名叫灭绝(郑秀文 饰)的武功高强人士,医术造诣也是非凡;对骄身惯养傲慢无理的飞虎全没好感。而飞虎对山上的清贫生活也是不屑一顾,不停的嚷着离开,但当看到王凤的真功夫后,终毫不犹豫留下。王凤用各种千奇古怪的方法替飞虎治病,飞虎受到百般戏弄却不自知。
 
  一日,大师姐李莫愁(李冰冰 饰)突然出现,誓要铲除峨眉。王凤为免伤及无辜,迅速把飞虎医好,飞虎得知之前王凤用的古怪方法全属戏弄,最后带着不忿而去。
 
  莫愁被情所伤,来此是要与王凤的独门绝学“伤心断肠剑”决战。灭绝急练“伤心断肠剑”,但从未经历过伤心的之苦,不悟最后一式——“百年好合”的其中奥妙,众人劝王凤去找飞虎帮忙,王凤才知飞虎已在短短的时间内伤尽众姐妹的心。
 
  飞虎听说恩人有难,加之花心未泯,便“不计前嫌”答应。但飞虎要做的第一步就是令灭绝爱上自己。第二步则是要用尽各样的招数刺激灭绝令她伤心。直至飞虎真正的未婚妻Cat出现……灭绝不敢再对飞虎存有希望,终带着破碎的心回到山上欲与莫愁决战,谁知飞虎也随后暗地赶来观战。
 
  到底是飞虎有意捉弄?还是灭绝情真意切?是否真能战赢师姐保住山门?情感真假谁能辩,人生事事难料,结局却出人意料……
 
◎精彩看点
   
    古装加时尚打造侠情故事
 
  港片里今古不分,故事横跨古今的例子太多,不过很多时候都是借助时间隧道或者是让死人复活来实现。这部《百年好合》没有采用这些常见套路,一个从香港到峨眉山的空间转移便让故事古今相通。郑秀文饰演的王凤是古装扮相,是因为她本人习武又是当地老字号的“杏林堂药店”的当家医师,而绅士打扮的古天乐饰演的洪飞虎则是风流倜傥的香港富豪。一个是武艺高强的“剑侠”,另为一个则是情场老到的“情侠”。 为让这对天隔一方的男女有戏发生,编导苦心编出了一个治病求医的借口。让劳累过度病倒的洪飞虎到峨眉山欲求名医,医术造诣非凡的王凤刚好上场。王凤用各种古怪的方法替飞虎治病,其实是在借机戏弄他。一日,杏林堂大师姐李莫愁突然出现,誓要铲平杏林堂。王凤为免伤及无辜,迅速把飞虎医好,飞虎才知原来王凤之前一直在戏弄自己。李莫愁是被情所伤,来此是要挑战王凤的独门绝学“伤心断肠剑”。两个女侠的戏就此上演。王凤急练“伤心断肠剑”,但因从未经历过伤心之苦,不悟最后一式“百年好合”,为此不得不求助于在短短的治病时间内已伤尽她众姐妹心的飞虎。飞虎要做的第一步就是令王凤爱上自己。第二步则是要用尽各样的招数刺激王凤令她伤心。而这时飞虎的未婚妻Cat突然出现,已生真情的这对男女该做何选择? 虽然听起来有些无厘头,但贺岁片图的就是热闹和喜气。包容现代爱情戏和古装武侠故事的一个大杂烩,显然是为了尽可能多满足多数影迷的口味。有剑侠用剑伤人,有情侠用情伤人,名剑暗剑齐发,观众想不受伤都难。

 

  General #1
    ID : 1 (0x1)
    Complete name : 00000.m2ts
    Format : BDAV
    Format/Info : Blu-ray Video
    File size : 21.2 GiB
    Duration : 1h 32mn
    Overall bit rate mode : Variable
    Overall bit rate : 32.7 Mbps
    Maximum Overall bit rate : 35.5 Mbps
  Video #4113
    ID : 4113 (0x1011)
    Menu ID : 1 (0x1)
    Format : AVC
    Format/Info : Advanced Video Codec
    Format profile : High@L4.1
    Format settings, CABAC : Yes
    Format settings, ReFrames : 4 frames
    Codec ID : 27
    Duration : 1h 32mn
    Bit rate mode : Variable
    Bit rate : 30.1 Mbps
    Maximum bit rate : 32.0 Mbps
    Width : 1 920 pixels
    Height : 1 080 pixels
    Display aspect ratio : 16:9
    Frame rate : 24.000 fps
    Standard : NTSC
    Color space : YUV
    Chroma subsampling : 4:2:0
    Bit depth : 8 bits
    Scan type : Progressive
    Bits/(Pixel*Frame) : 0.605
    Stream size : 19.5 GiB (92%)
    Color primaries : BT.709-5, BT.1361, IEC 61966-2-4, SMPTE RP177
    Transfer characteristics : BT.709-5, BT.1361
    Matrix coefficients : BT.709-5, BT.1361, IEC 61966-2-4 709, SMPTE RP177
  Audio #4352
    ID : 4352 (0x1100)
    Menu ID : 1 (0x1)
    Format : TrueHD
    Muxing mode : Stream extension
    Codec ID : 131
    Duration : 3s 782ms
    Bit rate mode : Variable
    Bit rate : 640 Kbps
    Maximum bit rate : 4 914 Kbps
    Channel(s) : 8 channels
    Channel positions : Front: L C R, Side: L R, Back: L R, LFE
    Sampling rate : 48.0 KHz
    Compression mode : Lossless
    Stream size : 295 KiB (0%)
    Language : Chinese
  Audio #4353
    ID : 4353 (0x1101)
    Menu ID : 1 (0x1)
    Format : AC-3
    Format/Info : Audio Coding 3
    Codec ID : 129
    Duration : 1h 32mn
    Bit rate : 640 Kbps
    Channel(s) : 5 channels
    Sampling rate : 48.0 KHz
    Compression mode : Lossy
    Stream size : 424 MiB (2%)
    Language : Chinese
  Text #4608
    ID : 4608 (0x1200)
    Menu ID : 1 (0x1)
    Format : PGS
    Codec ID : 144
    Language : Chinese

  评论这张
 
阅读(152)| 评论(0)
推荐 转载

历史上的今天

在LOFTER的更多文章

评论

<#--最新日志,群博日志--> <#--推荐日志--> <#--引用记录--> <#--博主推荐--> <#--随机阅读--> <#--首页推荐--> <#--历史上的今天--> <#--被推荐日志--> <#--上一篇,下一篇--> <#-- 热度 --> <#-- 网易新闻广告 --> <#--右边模块结构--> <#--评论模块结构--> <#--引用模块结构--> <#--博主发起的投票-->
 
 
 
 
 
 
 
 
 
 
 
 
 
 

页脚

网易公司版权所有 ©1997-2017