注册 登录  
 加关注
   显示下一条  |  关闭
温馨提示!由于新浪微博认证机制调整,您的新浪微博帐号绑定已过期,请重新绑定!立即重新绑定新浪微博》  |  关闭

逆风飞翔的鸟

追逐风中散落的默契~

 
 
 

日志

 
 
关于我

曾经迷惑于一份距离 曾经感动于一个传说 …… 在仆仆风中 我伸手 抓住你我的缘分 …… “傻傻”的你 能闻到风中 你我的默契吗?!

网易考拉推荐

【记录】Jackass.3.5.2011.蠢蛋搞怪秀3.5  

2012-07-21 10:57:05|  分类: 记录 |  标签: |举报 |字号 订阅

  下载LOFTER 我的照片书  |
【记录】Jackass.3.5.2011.蠢蛋搞怪秀3.5 - 归鸿 - 逆风飞翔的鸟

◎译  名 蠢蛋搞怪秀3.5
◎片  名 Jackass 3.5
◎年  代 2011
◎国  家 美国
◎类  别 纪录片/喜剧
◎语  言 英语
◎IMDB链接  http://www.imdb.com/title/tt1753968
◎片  长 84 mins 51 seconds
◎导  演 杰夫·特雷梅恩 Jeff Tremaine
◎主  演 约翰尼·诺克斯维尔 Johnny Knoxville ....Himself
       班姆·玛吉瑞 Bam Margera ....Himself
       史蒂夫·格洛弗 Steve-O ....Himself
       克里斯·庞蒂斯 Chris Pontius ....Himself
       瑞恩·邓恩 Ryan Dunn ....Himself
       杰森·阿库纳 Jason Acu?a ....Himself
       戴夫·英格兰 Dave England ....Himself
       普雷斯顿·莱西 Preston Lacy ....Himself
       Ehren McGhehey ....Himself
       
 
◎简  介 
 
Because too much is never enough! The boys of Jackass are at it again with an all-new unrated movie loaded with even more outrageous stunts, stupids, and never-before-seen-pranks and mayhem, including Steve-O's up-close and personal encounter with a snapping turtle, Chris Pontius and his incredible wood pecker, and an electrifying game of limbo with the whole gang. Plus, get an inside view of paranoid life on the Jackass set and the successful behind-the-scenes prank that was finally pulled on Johnny Knoxville.
 
最新的一集蠢蛋搞怪秀.节目以一群人进行各种危险、荒诞、自残的特技和搞笑演出为内容。

 

  General #0
    ID : 0 (0x0)
    Complete name : Jackass.3.5.UNRATED.2011.BD.REMUX.h264.1080p.ts
    Format : MPEG-TS
    File size : 21.2 GiB
    Duration : 1h 24mn
    Overall bit rate mode : Variable
    Overall bit rate : 35.7 Mbps
  Video #4129
    ID : 4129 (0x1021)
    Menu ID : 1 (0x1)
    Format : AVC
    Format/Info : Advanced Video Codec
    Format profile : High@L4.1
    Format settings, CABAC : Yes
    Format settings, ReFrames : 2 frames
    Codec ID : 27
    Duration : 1h 24mn
    Bit rate mode : Variable
    Bit rate : 32.4 Mbps
    Width : 1 920 pixels
    Height : 1 080 pixels
    Display aspect ratio : 16:9
    Frame rate : 23.976 fps
    Color space : YUV
    Chroma subsampling : 4:2:0
    Bit depth : 8 bits
    Scan type : Progressive
    Bits/(Pixel*Frame) : 0.652
    Stream size : 19.2 GiB (91%)
  Audio #4132
    ID : 4132 (0x1024)
    Menu ID : 1 (0x1)
    Format : DTS
    Format/Info : Digital Theater Systems
    Codec ID : 134
    Duration : 1h 24mn
    Bit rate mode : Constant
    Bit rate : 1 510 Kbps
    Channel(s) : 6 channels
    Channel positions : Front: L C R, Side: L R, LFE
    Sampling rate : 48.0 KHz
    Bit depth : 24 bits
    Compression mode : Lossy
    Stream size : 916 MiB (4%)
    Language : English

  评论这张
 
阅读(129)| 评论(0)
推荐 转载

历史上的今天

在LOFTER的更多文章

评论

<#--最新日志,群博日志--> <#--推荐日志--> <#--引用记录--> <#--博主推荐--> <#--随机阅读--> <#--首页推荐--> <#--历史上的今天--> <#--被推荐日志--> <#--上一篇,下一篇--> <#-- 热度 --> <#-- 网易新闻广告 --> <#--右边模块结构--> <#--评论模块结构--> <#--引用模块结构--> <#--博主发起的投票-->
 
 
 
 
 
 
 
 
 
 
 
 
 
 

页脚

网易公司版权所有 ©1997-2017