注册 登录  
 加关注
   显示下一条  |  关闭
温馨提示!由于新浪微博认证机制调整,您的新浪微博帐号绑定已过期,请重新绑定!立即重新绑定新浪微博》  |  关闭

逆风飞翔的鸟

追逐风中散落的默契~

 
 
 

日志

 
 
关于我

曾经迷惑于一份距离 曾经感动于一个传说 …… 在仆仆风中 我伸手 抓住你我的缘分 …… “傻傻”的你 能闻到风中 你我的默契吗?!

网易考拉推荐

【剧情】Singin'.in.the.Rain.1952.雨中曲  

2012-07-21 12:07:09|  分类: 剧情 |  标签: |举报 |字号 订阅

  下载LOFTER 我的照片书  |
【剧情】Singin.in.the.Rain.1952.雨中曲 - 归鸿 - 逆风飞翔的鸟

◎译  名 雨中曲/雨中情/万花嬉春/百花嬉春
◎片  名 Singin' in the Rain
◎年  代 1952
◎国  家 美国
◎类  别 喜剧/歌舞/爱情
◎语  言 英语
◎IMDB链接  http://www.imdb.com/title/tt0045152/
◎片  长 102 mins 50 seconds
◎导  演 斯坦利·多南 Stanley Donen
       吉恩·凯利 Gene Kelly
◎主  演 吉恩·凯利 Gene Kelly ....Don Lockwood
       黛比·雷诺斯 Debbie Reynolds ....Kathy Selden
       唐纳德·奥康纳 Donald O‘Connor ....Cosmo Brown
       简·哈根 Jean Hagen ....Lina Lamont
       Millard Mitchell ....R.F. Simpson
       赛德·查里斯 Cyd Charisse ....Dancer
       Douglas Fowley ....Roscoe Dexter
       丽塔·莫雷诺 Rita Moreno ....Zelda Zanders
 
 
◎简  介
 
  莱蒙和洛克是无声电影明星,被观众视为一对绝佳的银幕情侣。随着有声电影的兴起,莱蒙陷入了巨大的困境,因为她虽然拥有漂亮的脸蛋和丰满的体态,可是说起话来却像尖厉的猫叫一样难听。在拍有声电影时仍然是洋相百出。凯茜在洛克的引荐下加入制片队伍,当了莱蒙的配音演员。在相处的过程中,洛克爱上了凯茜。莱蒙自恃其以往的明星地位而自以为是,结果被观众和同行淘汰出局。凯茜后来成了观众喜爱的明星,并与洛克结为伉俪……
 

◎一句话评论
 
·What a Glorious Feeling !
 
·MGM‘s Musical Treasure

·无可否认,本片是最伟大的歌舞片。——《奥斯汀纪事》
 
·很少有歌舞片能够如此历久弥新。——《芝加哥太阳时报》
 

◎幕后制作
 
  这部歌舞片反映好莱坞从无声片到有声片的过渡。其中的主题歌舞彻底改变了下雨和心情沉重的内在联系。把早期好莱坞的一些电影歌曲加以串联,这样的做法通常产生的是陈词滥调和连篇俗套,但此处却催生了一部充满绚丽瑰宝的歌舞片。千万别把在雨中唱歌联想成凄凄惨惨戚戚,本片的情调犹如雨后的彩虹,流光四溢,那歌那舞是如此令人酥心,那喜剧是如此天真、开怀,能扫清你心头的任何阴霾。本片是舞蹈大王金·凯利(Gene Kelly)的精心杰作,尤其是他在雨中自导自唱自跳的主题曲,已成为好莱坞最经典的歌舞场景。
 


  General #1
    ID : 1 (0x1)
    Complete name : 00000.m2ts
    Format : BDAV
    Format/Info : Blu-ray Video
    File size : 24.7 GiB
    Duration : 1h 44mn
    Overall bit rate mode : Variable
    Overall bit rate : 33.8 Mbps
    Maximum Overall bit rate : 35.5 Mbps
  Video #4113
    ID : 4113 (0x1011)
    Menu ID : 1 (0x1)
    Format : AVC
    Format/Info : Advanced Video Codec
    Format profile : High@L4.1
    Format settings, CABAC : Yes
    Format settings, ReFrames : 2 frames
    Codec ID : 27
    Duration : 1h 42mn
    Bit rate mode : Variable
    Bit rate : 29.3 Mbps
    Width : 1 920 pixels
    Height : 1 080 pixels
    Display aspect ratio : 16:9
    Frame rate : 23.976 fps
    Color space : YUV
    Chroma subsampling : 4:2:0
    Bit depth : 8 bits
    Scan type : Progressive
    Bits/(Pixel*Frame) : 0.589
    Stream size : 21.0 GiB (85%)
  Audio #4352-253-113
    ID : 4352 (0x1100)-253 (0xFD)-113 (0x71)
    Menu ID : 1 (0x1)
    Format : DTS
    Format/Info : Digital Theater Systems
    Format profile : MA / Core
    Muxing mode : Stream extension
    Codec ID : 134
    Duration : 1h 42mn
    Bit rate mode : Variable
    Bit rate : 1 561 Kbps / 1 510 Kbps
    Channel(s) : 6 channels
    Channel positions : Front: L C R, Side: L R, LFE
    Sampling rate : 48.0 KHz
    Bit depth : 24 bits
    Compression mode : Lossless / Lossy
    Language : English
  Audio #4352-208
    ID : 4352 (0x1100)-208 (0xD0)
    Menu ID : 1 (0x1)
    Format : DTS
    Format/Info : Digital Theater Systems
    Duration : 1h 44mn
    Bit rate mode : Constant
    Bit rate : 1 510 Kbps
    Channel(s) : 6 channels
    Channel positions : Front: L C R, Side: L R, LFE
    Sampling rate : 48.0 KHz
    Bit depth : 24 bits
    Compression mode : Lossy
    Stream size : 1.10 GiB (4%)
  Text #4608
    ID : 4608 (0x1200)
    Menu ID : 1 (0x1)
    Format : PGS
    Codec ID : 144
    Language : Chinese
  Text #4609
    ID : 4609 (0x1201)
    Menu ID : 1 (0x1)
    Format : PGS
    Codec ID : 144
    Language : Chinese
  Text #4610
    ID : 4610 (0x1202)
    Menu ID : 1 (0x1)
    Format : PGS
    Codec ID : 144
    Language : Japanese
  Text #4611
    ID : 4611 (0x1203)
    Menu ID : 1 (0x1)
    Format : PGS
    Codec ID : 144
    Language : English
  Text #4612
    ID : 4612 (0x1204)
    Menu ID : 1 (0x1)
    Format : PGS
    Codec ID : 144
    Duration : 1h 42mn
    Delay relative to video : 4s 922ms
    Language : Japanese
  Text #4613
    ID : 4613 (0x1205)
    Menu ID : 1 (0x1)
    Format : PGS
    Codec ID : 144
    Language : French
  Text #4614
    ID : 4614 (0x1206)
    Menu ID : 1 (0x1)
    Format : PGS
    Codec ID : 144
    Language : German
  Text #4615
    ID : 4615 (0x1207)
    Menu ID : 1 (0x1)
    Format : PGS
    Codec ID : 144
    Language : Italian
  Text #4616
    ID : 4616 (0x1208)
    Menu ID : 1 (0x1)
    Format : PGS
    Codec ID : 144
    Language : Spanish
  Text #4617
    ID : 4617 (0x1209)
    Menu ID : 1 (0x1)
    Format : PGS
    Codec ID : 144
    Language : Spanish
  Text #4618
    ID : 4618 (0x120A)
    Menu ID : 1 (0x1)
    Format : PGS
    Codec ID : 144
    Language : Portuguese
  Text #4619
    ID : 4619 (0x120B)
    Menu ID : 1 (0x1)
    Format : PGS
    Codec ID : 144
    Language : Czech
  Text #4620
    ID : 4620 (0x120C)
    Menu ID : 1 (0x1)
    Format : PGS
    Codec ID : 144
    Language : Danish
  Text #4621
    ID : 4621 (0x120D)
    Menu ID : 1 (0x1)
    Format : PGS
    Codec ID : 144
    Language : Finnish
  Text #4622
    ID : 4622 (0x120E)
    Menu ID : 1 (0x1)
    Format : PGS
    Codec ID : 144
    Language : Hungarian
  Text #4623
    ID : 4623 (0x120F)
    Menu ID : 1 (0x1)
    Format : PGS
    Codec ID : 144
    Language : Norwegian
  Text #4624
    ID : 4624 (0x1210)
    Menu ID : 1 (0x1)
    Format : PGS
    Codec ID : 144
    Language : Polish
  Text #4625
    ID : 4625 (0x1211)
    Menu ID : 1 (0x1)
    Format : PGS
    Codec ID : 144
    Language : Russian
  Text #4626
    ID : 4626 (0x1212)
    Menu ID : 1 (0x1)
    Format : PGS
    Codec ID : 144
    Language : Swedish

  评论这张
 
阅读(120)| 评论(0)
推荐 转载

历史上的今天

在LOFTER的更多文章

评论

<#--最新日志,群博日志--> <#--推荐日志--> <#--引用记录--> <#--博主推荐--> <#--随机阅读--> <#--首页推荐--> <#--历史上的今天--> <#--被推荐日志--> <#--上一篇,下一篇--> <#-- 热度 --> <#-- 网易新闻广告 --> <#--右边模块结构--> <#--评论模块结构--> <#--引用模块结构--> <#--博主发起的投票-->
 
 
 
 
 
 
 
 
 
 
 
 
 
 

页脚

网易公司版权所有 ©1997-2017