注册 登录  
 加关注
   显示下一条  |  关闭
温馨提示!由于新浪微博认证机制调整,您的新浪微博帐号绑定已过期,请重新绑定!立即重新绑定新浪微博》  |  关闭

逆风飞翔的鸟

追逐风中散落的默契~

 
 
 

日志

 
 
关于我

曾经迷惑于一份距离 曾经感动于一个传说 …… 在仆仆风中 我伸手 抓住你我的缘分 …… “傻傻”的你 能闻到风中 你我的默契吗?!

网易考拉推荐

【亚洲】Spellbound.2011.我的见鬼女友  

2012-07-21 12:14:46|  分类: 亚洲 |  标签: |举报 |字号 订阅

  下载LOFTER 我的照片书  |
【亚洲】Spellbound.2011.我的见鬼女友 - 归鸿 - 逆风飞翔的鸟

【影片原名】Spellbound /Chilling Romance/??? ??/O-ssak-han Yeon-ae/Ossakhan Yeonae
【中文译名】我的见鬼女友
【出品年代】2011 年
【影片级别】Korean:12A
【IMDB链接】http://www.imdb.com/title/tt2132405/
【国  家】韩国
【类  别】浪漫/喜剧/爱情
【导  演】黄仁浩 In-ho Hwang
【主  演】孙艺珍 Ye-jin Son
            李民基 Min-kil lee
            朴哲民 Cheol-min Park
            金贤淑 Hyeon-seok Kim
            尹智敏 Yoon Ji-min
            李美度 Lee Mi-do
            黄胜嫣 Seung-On Hwang
            申成勋 Seong-hun Sin
            严泰九 Tea-gu Eom


【内容简介】
 
    影片主打孙艺珍与李民基的姐弟档,并在喜剧和爱情中融合“恐怖”元素,讲述一对能够看见鬼魂的男女的故事。想要浪漫,就加点“恐怖”吧。
 

【一句话评论】
 
    恐怖魔术秀“让人看得津津有味,令观众如同置身剧场而不是电影院。
 
    ——10Asiae
 
    让观众恍惚游走于浪漫喜剧和恐怖惊悚之间。
 

【幕后花絮】
 
    另类欢乐另类爱
 
  本片导演黄仁浩原是编剧好手,2004年推出的《失时2公里》普一上映就成为人气电影,成为恐怖喜剧的典范。之后,他先后创作了《蜥蜴》和《双面女友》。前者由当时的情侣明星赵承佑姜惠贞联袂主演,反响不俗;后者令郑丽媛难得地嗅出了演技。《蜥蜴》一片最夺目处是完美地将现实和幻想结合到一起,画面美轮美奂,台词感人至深。《双面女友》则巧妙以分裂人格为由头,进行了一次“野蛮女友”的升级,令人耳目一新。黄仁浩讲故事的本领可见一斑,势必有朝一日走到目前。
 
  距离上一部作品近三年,黄仁浩携带新作《我的见鬼女友》再次与观众见面,并编导一体,更试图将恐怖片和浪漫剧进行一次彻底的嫁接。2006年,孙在坤导演的《甜蜜的恐怖恋人》曾将“血腥”同爱情喜剧联系在一起,获得了意想不到的绝佳效果,衍生出一种有点毛骨悚然的浪漫剧形式。黄仁浩在新作中索性将这一类型发挥到极致,不仅“见鬼”还有诡秘的法术。当然,爱情元素也是重中之重,这对于写了多部爱情片的黄仁浩来说可谓信手拈来,难得的是,在镜头的运用上,他也颇为老练,绝不似新手般青涩,特别是对灯光、音效等硬件方面的气氛营造有别具一格的理念。
 
    又是“姐弟档”
 
  从《醉画仙》的小角色一路走来,孙艺珍出落得越来越动人,演技更是日臻完善。到了《老婆要嫁人》《白夜行》后,她几乎成了忠武路电影人最喜欢用的女演员。可贵的是,孙艺珍在大银幕的成功并没有让她远离荧幕,《聚光灯》《无防备都市》《个人取向》等一系列的人气剧集令她成为圈内最勤奋的女演员,更将她的人气推到顶点。因此,实力加美貌再加人气,孙艺珍的星路一片大好。
 
  《我的见鬼女友》可谓是孙艺珍主流浪漫剧的回归之作,此前虽然有《假如爱有天意》《外出》《我脑中的橡皮擦》等片打底,但多属文艺片,而真正意义上的浪漫喜剧只有《疯狂初恋》《搭讪的法则》两部,因此,新片收到的关注度可想而知。女主角的造型亦被业内外一致认可超可爱、非常萌,与小她几岁李民基配戏丝毫没有不适感。
 
  李民基在此前大制作《海云台》中的表现令人眼前一亮,《快递惊魂》中更独挑大梁,进步神速。《我的见鬼女友》中,他饰演了一个所谓的“惊悚魔术师”,但内心对很多异能事物感到恐惧和不安。当然,感情戏的挑战也令李民基做足功课,某种意义上讲,这是他的首部爱情片,希望给观众留下深情专一的印象。
 


  General #1
    ID : 1 (0x1)
    Complete name : 00000.m2ts
    Format : BDAV
    Format/Info : Blu-ray Video
    File size : 25.3 GiB
    Duration : 1h 53mn
    Overall bit rate mode : Variable
    Overall bit rate : 31.9 Mbps
    Maximum Overall bit rate : 35.5 Mbps
  Video #4113
    ID : 4113 (0x1011)
    Menu ID : 1 (0x1)
    Format : AVC
    Format/Info : Advanced Video Codec
    Format profile : High@L4.1
    Format settings, CABAC : Yes
    Format settings, ReFrames : 4 frames
    Format settings, GOP : M=3, N=24
    Codec ID : 27
    Duration : 1h 53mn
    Bit rate mode : Variable
    Bit rate : 29.2 Mbps
    Maximum bit rate : 35.0 Mbps
    Width : 1 920 pixels
    Height : 1 080 pixels
    Display aspect ratio : 16:9
    Frame rate : 23.976 fps
    Standard : NTSC
    Color space : YUV
    Chroma subsampling : 4:2:0
    Bit depth : 8 bits
    Scan type : Progressive
    Bits/(Pixel*Frame) : 0.586
    Stream size : 23.1 GiB (91%)
    Color primaries : BT.709-5, BT.1361, IEC 61966-2-4, SMPTE RP177
    Transfer characteristics : BT.709-5, BT.1361
    Matrix coefficients : BT.709-5, BT.1361, IEC 61966-2-4 709, SMPTE RP177
  Audio #4352
    ID : 4352 (0x1100)
    Menu ID : 1 (0x1)
    Format : DTS
    Format/Info : Digital Theater Systems
    Muxing mode : Stream extension
    Codec ID : 134
    Duration : 1h 52mn
    Bit rate mode : Constant
    Bit rate : 1 510 Kbps
    Channel(s) : 6 channels
    Channel positions : Front: L C R, Side: L R, LFE
    Sampling rate : 48.0 KHz
    Bit depth : 24 bits
    Compression mode : Lossy
    Stream size : 1.19 GiB (5%)
    Language : Korean
  Text #4608
    ID : 4608 (0x1200)
    Menu ID : 1 (0x1)
    Format : PGS
    Codec ID : 144
    Language : Chinese
  Text #4609
    ID : 4609 (0x1201)
    Menu ID : 1 (0x1)
    Format : PGS
    Codec ID : 144
    Language : English

  评论这张
 
阅读(195)| 评论(0)
推荐 转载

历史上的今天

在LOFTER的更多文章

评论

<#--最新日志,群博日志--> <#--推荐日志--> <#--引用记录--> <#--博主推荐--> <#--随机阅读--> <#--首页推荐--> <#--历史上的今天--> <#--被推荐日志--> <#--上一篇,下一篇--> <#-- 热度 --> <#-- 网易新闻广告 --> <#--右边模块结构--> <#--评论模块结构--> <#--引用模块结构--> <#--博主发起的投票-->
 
 
 
 
 
 
 
 
 
 
 
 
 
 

页脚

网易公司版权所有 ©1997-2017