注册 登录  
 加关注
   显示下一条  |  关闭
温馨提示!由于新浪微博认证机制调整,您的新浪微博帐号绑定已过期,请重新绑定!立即重新绑定新浪微博》  |  关闭

逆风飞翔的鸟

追逐风中散落的默契~

 
 
 

日志

 
 
关于我

曾经迷惑于一份距离 曾经感动于一个传说 …… 在仆仆风中 我伸手 抓住你我的缘分 …… “傻傻”的你 能闻到风中 你我的默契吗?!

网易考拉推荐

【亚洲】Aces.Go.Places.4.1986.最佳拍档4:大显虎威  

2012-06-30 17:48:21|  分类: 亚洲 |  标签: |举报 |字号 订阅

  下载LOFTER 我的照片书  |
【亚洲】Aces.Go.Places.4.1986.最佳拍档4:大显虎威 - 归鸿 - 逆风飞翔的鸟

◎译  名 最佳拍档4千里救差婆/最佳拍档大显虎威/最佳拍档V马佣风云
◎片  名 Aces go places IV
◎年  代 1986
◎国  家 中国香港
◎类  别 喜剧/动作
◎语  言 粤语/普通话
◎IMDB链接  http://www.imdb.com/title/tt0092268
◎片  长 86 Min
◎导  演 林岭东 Ringo Lam
◎主  演 张艾嘉 Sylvia Chang  ....差婆 Supt. Nancy Ho
       许冠杰 Sam Hui  ....King Kong
       麦嘉 Carl Maka  ....光头神探 Albert Au
       石坚 Shih Kien  ....奸人坚 Interpol Boss
       叶倩文 Sally Yeh  ....Professor's Daughter
       Gayle-Anne Jones  ....Henchwoman
       Ronald Lacey  ....Leader of the Villains
       乔宏 Roy Chiao  ....教授 The Professor
       曹达华 Dahua Cao  ....宽叔 Hua
       关德兴 Tak-Hing Kwan  ....师父 Police Hockey Team Coach
 
 
◎简  介 
 
    纽西兰老科学家发明的三菱镜通过光波可将人内的潜意识发挥到极点,成为一种超能力。当KING KONG(许冠杰)正接受这项试验之际,反派组织遣杀手用直升机袭击实验室,夺实验报告及枪杀了老科学家。幸得科学家三女Sally(叶倩文)出现,KING KONG便取了菱镜并逃出险境。返回香港后,KING KONG便往找拍档光头神探(麦嘉)帮助,希望真相查明白……
 

◎幕后制作
 
    《最佳拍档》系列电影是新艺城电影公司的当家力作,自上一年其续集作品《最佳拍档之女皇密令》拿下票房冠军,创造新的卖座纪录之后,公司当即快马加鞭,赶制了新一部续集,不仅保留了原来常用的经典演员阵容,而且启用了签在手中几年却时常被闲置起来的大导演林岭东。影片仍旧以疯狂的笑料作为主打,但商业上却还是在吃前作的老本,创新之初并不多。影片上映之后,虽然评论口碑平平,相继指责其桥段老套缺乏亮点,但影片仍旧卖出了2400多万的高票房。

 

  General #1
    ID : 1 (0x1)
    Complete name : 00000.m2ts
    Format : BDAV
    Format/Info : Blu-ray Video
    File size : 20.4 GiB
    Duration : 1h 28mn
    Overall bit rate mode : Variable
    Overall bit rate : 32.9 Mbps
    Maximum Overall bit rate : 35.5 Mbps
  Video #4113
    ID : 4113 (0x1011)
    Menu ID : 1 (0x1)
    Format : AVC
    Format/Info : Advanced Video Codec
    Format profile : High@L4.1
    Format settings, CABAC : Yes
    Format settings, ReFrames : 4 frames
    Codec ID : 27
    Duration : 1h 28mn
    Bit rate mode : Variable
    Bit rate : 28.6 Mbps
    Maximum bit rate : 32.0 Mbps
    Width : 1 920 pixels
    Height : 1 080 pixels
    Display aspect ratio : 16:9
    Frame rate : 23.976 fps
    Standard : NTSC
    Color space : YUV
    Chroma subsampling : 4:2:0
    Bit depth : 8 bits
    Scan type : Progressive
    Bits/(Pixel*Frame) : 0.574
    Stream size : 17.7 GiB (87%)
    Color primaries : BT.709-5, BT.1361, IEC 61966-2-4, SMPTE RP177
    Transfer characteristics : BT.709-5, BT.1361
    Matrix coefficients : BT.709-5, BT.1361, IEC 61966-2-4 709, SMPTE RP177
  Audio #4352
    ID : 4352 (0x1100)
    Menu ID : 1 (0x1)
    Format : DTS
    Format/Info : Digital Theater Systems
    Format profile : MA / Core
    Muxing mode : Stream extension
    Codec ID : 134
    Duration : 1h 28mn
    Bit rate mode : Variable
    Bit rate : 2 374 Kbps / 1 510 Kbps
    Channel(s) : 8 channels / 6 channels
    Channel positions : Front: L C R, Side: L R, Back: L R, LFE / Front: L C R, Side: L R, LFE
    Sampling rate : 48.0 KHz
    Bit depth : 16 bits
    Compression mode : Lossless / Lossy
    Language : Chinese
  Audio #4353
    ID : 4353 (0x1101)
    Menu ID : 1 (0x1)
    Format : AC-3
    Format/Info : Audio Coding 3
    Codec ID : 129
    Duration : 1h 28mn
    Bit rate : 640 Kbps
    Channel(s) : 5 channels
    Sampling rate : 48.0 KHz
    Compression mode : Lossy
    Stream size : 406 MiB (2%)
    Language : Chinese
  Text #4608
    ID : 4608 (0x1200)
    Menu ID : 1 (0x1)
    Format : PGS
    Codec ID : 144
    Language : Chinese
  Text #4609
    ID : 4609 (0x1201)
    Menu ID : 1 (0x1)
    Format : PGS
    Codec ID : 144
    Language : English

  评论这张
 
阅读(298)| 评论(0)
推荐 转载

历史上的今天

在LOFTER的更多文章

评论

<#--最新日志,群博日志--> <#--推荐日志--> <#--引用记录--> <#--博主推荐--> <#--随机阅读--> <#--首页推荐--> <#--历史上的今天--> <#--被推荐日志--> <#--上一篇,下一篇--> <#-- 热度 --> <#-- 网易新闻广告 --> <#--右边模块结构--> <#--评论模块结构--> <#--引用模块结构--> <#--博主发起的投票-->
 
 
 
 
 
 
 
 
 
 
 
 
 
 

页脚

网易公司版权所有 ©1997-2017