注册 登录  
 加关注
   显示下一条  |  关闭
温馨提示!由于新浪微博认证机制调整,您的新浪微博帐号绑定已过期,请重新绑定!立即重新绑定新浪微博》  |  关闭

逆风飞翔的鸟

追逐风中散落的默契~

 
 
 

日志

 
 
关于我

曾经迷惑于一份距离 曾经感动于一个传说 …… 在仆仆风中 我伸手 抓住你我的缘分 …… “傻傻”的你 能闻到风中 你我的默契吗?!

网易考拉推荐

【亚洲】Aces.Go.Places.3.1984.最佳拍档3:女皇密令  

2012-06-30 17:46:13|  分类: 亚洲 |  标签: |举报 |字号 订阅

  下载LOFTER 我的照片书  |
【亚洲】Aces.Go.Places.3.1984.最佳拍档3:女皇密令 - 归鸿 - 逆风飞翔的鸟

◎译  名 最佳拍档之女皇密令/最佳拍档女皇密令/最佳拍档3:女皇密令
◎片  名 Aces Go Places III
◎年  代 1984
◎国  家 中国香港
◎类  别 剧情/喜剧
◎语  言 普通话/粤语
◎IMDB链接  http://www.imdb.com/title/tt0088457/
◎片  长 95 Mins
◎导  演 徐克 Hark Tsui
◎主  演 许冠杰 Sam Hui....Sam Hong Kong (as Samuel Hul)
       麦嘉 Carl Maka....Albert Au (as Cark Mak)
       许冠英 Ricky Hui....Puffer Fish (uncredited)
       曹查理 Charlie Cho....Tso (uncredited)
       曹达华 Dahua Cao....Hua (uncredited)
       卢冠廷 Lowell Lo....Subway Driver (uncredited)
       徐克 Hark Tsui....Cameo appearance (uncredited)
       彼得·格雷夫斯 Peter Graves....Tom Collins
       理查德·基尔 Richard Kiel....Big G
       Jean Mersant
       Naomi Otsubo
       Huguette Funfrock....Queen of England
       Tsunehara Sogiyama....Oddjob (as Tsuneharu Sugiyama)
       Lerias Momeyer....(as Lerisa Momeyer)
       哈罗德·萨卡塔 Harold Sakata
       Neil Connery....(uncredited)
       张艾嘉 Sylvia Chang....Supt. Nancy Ho
       岑建勋 John Sham
       
 
◎简       介 
 
    黑猫(许冠杰)在巴黎渡假时受到女杀手(罗莉萨)突袭,当被诱至铁塔时,更为大钢牙(李察基路)及钢帽(雷电杉山)所伏击,在铁塔升降机上大打出手,惊险百出。黑猫在危急之际,跳下塞纳马恩省河,却又被鲨鱼型潜艇吞没。当他醒过来时,有一名自称英国特工的邦先生(新康纳利)向他剖白……
 
    黑猫King Kong(许冠杰)在巴黎接连遭身份不明的人阻击,在铁塔上大打出手,掉入塞纳河,醒来时自称是英国特工的邦向他剖白,此乃英女皇二世对他的考验,且托黑猫返港盗回宝石,黑猫不知真相,信以为真,欣然领命。与此同时,隶属秘密组织的汤哥伦士到了香港调查由邦先生领导的国际犯罪集团。King Kong为邦先生顺利完成任务,但后来却被港督传召协助捉拿邦先生等人…… 且识破邦的阴谋后黑猫决定对邦来个将计就计。
 
    黑猫(许冠杰 饰)身手敏捷,小有名气。一次,他在巴黎时忽然遭到不明身份的女杀手袭击,当他和对手一路打斗来到铁塔时,伏击在此的大钢牙和刚帽突然出击。措手不及的黑猫眼看性命不保,纵身跳下了塞纳河。
 
    当黑猫醒来的时候,一名自称占士邦的应该特工人员告诉他这是女皇对他的考验,现在他已通过考验,可以正式接受女皇的密令。信以为真的黑猫欣然应允,返港为女皇盗窃一枚极为贵重的宝石。当黑猫费尽九牛二虎之力完成任务后,发现事实并非如此。
 

◎幕后制作
 
    继上一年推出《最佳拍档》续集作品《大显神通》之后,许冠杰、麦嘉、张艾嘉这个原班人马继续在《最佳拍档女皇密令》继续联袂,投入的精力与成本明显要比前作要大得多,更是邀请了好莱坞巨星“占士邦”的扮演者肖恩?康纳利、“钢牙”李察·基顿的加盟演出,可谓是星光熠熠。与之前的《大显神通》不同的是,这部在当年的贺岁档上映的影片一经推出就冲破了2,900万票房,创造了新的票房神话。

 

  General #1
    ID : 1 (0x1)
    Complete name : 00000.m2ts
    Format : BDAV
    Format/Info : Blu-ray Video
    File size : 19.6 GiB
    Duration : 1h 35mn
    Overall bit rate mode : Variable
    Overall bit rate : 29.4 Mbps
    Maximum Overall bit rate : 35.5 Mbps
  Video #4113
    ID : 4113 (0x1011)
    Menu ID : 1 (0x1)
    Format : AVC
    Format/Info : Advanced Video Codec
    Format profile : High@L4.1
    Format settings, CABAC : Yes
    Format settings, ReFrames : 4 frames
    Codec ID : 27
    Duration : 1h 35mn
    Bit rate mode : Variable
    Bit rate : 25.2 Mbps
    Maximum bit rate : 30.0 Mbps
    Width : 1 920 pixels
    Height : 1 080 pixels
    Display aspect ratio : 16:9
    Frame rate : 23.976 fps
    Standard : NTSC
    Color space : YUV
    Chroma subsampling : 4:2:0
    Bit depth : 8 bits
    Scan type : Progressive
    Bits/(Pixel*Frame) : 0.507
    Stream size : 16.8 GiB (86%)
    Color primaries : BT.709-5, BT.1361, IEC 61966-2-4, SMPTE RP177
    Transfer characteristics : BT.709-5, BT.1361
    Matrix coefficients : BT.709-5, BT.1361, IEC 61966-2-4 709, SMPTE RP177
  Audio #4352
    ID : 4352 (0x1100)
    Menu ID : 1 (0x1)
    Format : DTS
    Format/Info : Digital Theater Systems
    Format profile : MA / Core
    Muxing mode : Stream extension
    Codec ID : 134
    Duration : 1h 35mn
    Bit rate mode : Variable
    Bit rate : 2 356 Kbps / 1 510 Kbps
    Channel(s) : 8 channels / 6 channels
    Channel positions : Front: L C R, Side: L R, Back: L R, LFE / Front: L C R, Side: L R, LFE
    Sampling rate : 48.0 KHz
    Bit depth : 16 bits
    Compression mode : Lossless / Lossy
    Language : Chinese
  Audio #4353
    ID : 4353 (0x1101)
    Menu ID : 1 (0x1)
    Format : AC-3
    Format/Info : Audio Coding 3
    Codec ID : 129
    Duration : 1h 35mn
    Bit rate : 640 Kbps
    Channel(s) : 5 channels
    Sampling rate : 48.0 KHz
    Compression mode : Lossy
    Stream size : 437 MiB (2%)
    Language : Chinese
  Text #4608
    ID : 4608 (0x1200)
    Menu ID : 1 (0x1)
    Format : PGS
    Codec ID : 144
    Language : Chinese
  Text #4609
    ID : 4609 (0x1201)
    Menu ID : 1 (0x1)
    Format : PGS
    Codec ID : 144
    Language : English

  评论这张
 
阅读(217)| 评论(0)
推荐 转载

历史上的今天

在LOFTER的更多文章

评论

<#--最新日志,群博日志--> <#--推荐日志--> <#--引用记录--> <#--博主推荐--> <#--随机阅读--> <#--首页推荐--> <#--历史上的今天--> <#--被推荐日志--> <#--上一篇,下一篇--> <#-- 热度 --> <#-- 网易新闻广告 --> <#--右边模块结构--> <#--评论模块结构--> <#--引用模块结构--> <#--博主发起的投票-->
 
 
 
 
 
 
 
 
 
 
 
 
 
 

页脚

网易公司版权所有 ©1997-2017