注册 登录  
 加关注
   显示下一条  |  关闭
温馨提示!由于新浪微博认证机制调整,您的新浪微博帐号绑定已过期,请重新绑定!立即重新绑定新浪微博》  |  关闭

逆风飞翔的鸟

追逐风中散落的默契~

 
 
 

日志

 
 
关于我

曾经迷惑于一份距离 曾经感动于一个传说 …… 在仆仆风中 我伸手 抓住你我的缘分 …… “傻傻”的你 能闻到风中 你我的默契吗?!

网易考拉推荐

【亚洲】Aces.Go.Places.1.1982.最佳拍档1:光头神探  

2012-06-30 17:44:11|  分类: 亚洲 |  标签: |举报 |字号 订阅

  下载LOFTER 我的照片书  |
【亚洲】Aces.Go.Places.1.1982.最佳拍档1:光头神探 - 归鸿 - 逆风飞翔的鸟

◎译  名 最佳拍档1:光头神探/光头神探贼状元
◎片  名 aces go places/mad mission/zuijia paidang
◎年  代 1982
◎国  家 香港
◎类  别 动作/喜剧
◎语  言 粤语/国语
◎imdb链接  http://www.imdb.com/title/tt0084955/
◎片  长 93 mins
◎导  演 曾志伟 eric tsang
◎主  演 张艾嘉 sylvia chang .....贺东施 supt. nancy ho
       许冠杰 sam hui .....king kong
       麦嘉 carl maka .....光头神探 albert au
       陈令智 lindzay chan .....ballerina
       陈星 sing chen .....狂人星 mad max
       曹达华 dahua cao .....hua
       古嘉露 carroll gordon .....叮当 marge
       林子祥 george lam .....ambulance driver
       石天 tean shek .....口水泉 gigolo joe
       徐克 hark tsui .....剧团指挥 cameo appearance
       黄百鸣 bak-ming wong .....priest
 
 
◎简  介 
 
  剧情围绕神偷黑猫盗宝时无间中遗下一只白手套展开,警方怀疑是国际犯罪集团的“白手套”所为,于是惊动国际刑警,派光头神探前来查案;而黑手党因为有人冒充其“白手套"四处犯罪,也派杀手来港调查。这倒让黑猫感到危机重重,为保命向警方自首,并一起对付真正的“白手套”。
 
  神偷黑猫劫宝时因无意中留下一只白手套,致使警方怀疑劫宝案为国际犯罪集团的"白手套"所为。经向国际刑警求助,国际刑警派出光头神探来港追缉疑犯。怎料他刚抵港又发生"白手套"劫案,女警探以为他是劫匪,把他捉回警局。珠宝失主飞往罗马与黑手党教父商讨,教父知道香港有人冒允其"白手套"四处犯罪,决定联同杀手来港查个水落石出。这时黑猫感到危机重重,为了保护自己,他向警方自首,并与有关方面携手对付"白手套"。光头神探终于生擒"白手套"归案,并赢得女警探垂青。
 
◎幕后制作
 
  香港影坛的另一位喜剧老将麦嘉,在早期与石天,黄百鸣联合组办了新艺城电影公司,并于一九八二年拍摄并主演了这部创业影片《最佳拍挡》。该影片以一种近乎疯狂的喜剧表现手法,深深震撼了广大影迷们的心靈,所以当年一经推出就以其绝对的优势和魅力成功地改写了香港历史最高票房记录。这不但使香港娱乐影片成功地独霸了电影市场的大半壁江山,而且还以其绝对的影响力和号召力,使还很显得年轻稚嫩的新艺城电影公司,一举成为香港制片界公认的“第三势力”。开始与老牌的邵氏、嘉禾相互分割领地,鼎足而立。更加开创了香港商业电影跨越辉煌与大举发展的先河。其对香港电影发展的贡献与意义相当具有开拓性,堪称是领军时代的经典佳作。

 

  General #1
    ID : 1 (0x1)
    Complete name : 00000.m2ts
    Format : BDAV
    Format/Info : Blu-ray Video
    File size : 20.2 GiB
    Duration : 1h 33mn
    Overall bit rate mode : Variable
    Overall bit rate : 30.9 Mbps
    Maximum Overall bit rate : 35.5 Mbps
  Video #4113
    ID : 4113 (0x1011)
    Menu ID : 1 (0x1)
    Format : AVC
    Format/Info : Advanced Video Codec
    Format profile : High@L4.1
    Format settings, CABAC : Yes
    Format settings, ReFrames : 4 frames
    Codec ID : 27
    Duration : 1h 33mn
    Bit rate mode : Variable
    Bit rate : 26.7 Mbps
    Maximum bit rate : 33.0 Mbps
    Width : 1 920 pixels
    Height : 1 080 pixels
    Display aspect ratio : 16:9
    Frame rate : 23.976 fps
    Standard : NTSC
    Color space : YUV
    Chroma subsampling : 4:2:0
    Bit depth : 8 bits
    Scan type : Progressive
    Bits/(Pixel*Frame) : 0.537
    Stream size : 17.5 GiB (86%)
    Color primaries : BT.709-5, BT.1361, IEC 61966-2-4, SMPTE RP177
    Transfer characteristics : BT.709-5, BT.1361
    Matrix coefficients : BT.709-5, BT.1361, IEC 61966-2-4 709, SMPTE RP177
  Audio #4352
    ID : 4352 (0x1100)
    Menu ID : 1 (0x1)
    Format : DTS
    Format/Info : Digital Theater Systems
    Format profile : MA / Core
    Muxing mode : Stream extension
    Codec ID : 134
    Duration : 1h 33mn
    Bit rate mode : Variable
    Bit rate : 2 371 Kbps / 1 510 Kbps
    Channel(s) : 8 channels / 6 channels
    Channel positions : Front: L C R, Side: L R, Back: L R, LFE / Front: L C R, Side: L R, LFE
    Sampling rate : 48.0 KHz
    Bit depth : 16 bits
    Compression mode : Lossless / Lossy
    Language : Chinese
  Audio #4353
    ID : 4353 (0x1101)
    Menu ID : 1 (0x1)
    Format : AC-3
    Format/Info : Audio Coding 3
    Codec ID : 129
    Duration : 1h 33mn
    Bit rate : 640 Kbps
    Channel(s) : 5 channels
    Sampling rate : 48.0 KHz
    Compression mode : Lossy
    Stream size : 428 MiB (2%)
    Language : Chinese
  Text #4608
    ID : 4608 (0x1200)
    Menu ID : 1 (0x1)
    Format : PGS
    Codec ID : 144
    Language : Chinese
  Text #4609
    ID : 4609 (0x1201)
    Menu ID : 1 (0x1)
    Format : PGS
    Codec ID : 144
    Language : English

  评论这张
 
阅读(145)| 评论(0)
推荐 转载

历史上的今天

在LOFTER的更多文章

评论

<#--最新日志,群博日志--> <#--推荐日志--> <#--引用记录--> <#--博主推荐--> <#--随机阅读--> <#--首页推荐--> <#--历史上的今天--> <#--被推荐日志--> <#--上一篇,下一篇--> <#-- 热度 --> <#-- 网易新闻广告 --> <#--右边模块结构--> <#--评论模块结构--> <#--引用模块结构--> <#--博主发起的投票-->
 
 
 
 
 
 
 
 
 
 
 
 
 
 

页脚

网易公司版权所有 ©1997-2017