注册 登录  
 加关注
   显示下一条  |  关闭
温馨提示!由于新浪微博认证机制调整,您的新浪微博帐号绑定已过期,请重新绑定!立即重新绑定新浪微博》  |  关闭

逆风飞翔的鸟

追逐风中散落的默契~

 
 
 

日志

 
 
关于我

曾经迷惑于一份距离 曾经感动于一个传说 …… 在仆仆风中 我伸手 抓住你我的缘分 …… “傻傻”的你 能闻到风中 你我的默契吗?!

网易考拉推荐

【动作】Black.Gold.2011.黑金  

2012-06-25 20:38:34|  分类: 动作 |  标签: |举报 |字号 订阅

  下载LOFTER 我的照片书  |
【动作】Black.Gold.2011.黑金 - 归鸿 - 逆风飞翔的鸟

◎译  名 黑金
◎片  名 Black Gold
◎年  代 2011
◎国  家 法国/意大利 
◎类  别 剧情
◎语  言 法语
◎IMDB链接  http://www.imdb.com/title/tt1701210/
◎片  长 130 mins 13 seconds
◎导  演 让-雅克·阿诺 Jean Jacques Annaud
◎主  演 安东尼奥·班德拉斯 Antonio Banderas  ....Nassib
       塔哈·拉希姆 Tahar Rahim  ....Prince Auda
       芙蕾达·平托 Freida Pinto  ....Princess Lallah
       马克·斯特朗 Mark Strong  ....Amar
       里兹·阿迈德 Riz Ahmed  ....Ali
       克里·约翰逊 Corey Johnson  ....Thurkettle
       莉亚·科贝德 Liya Kebede  ....Aicha
       艾瑞克·艾伯纳尼 Eriq Ebouaney  ....Hassan Dakhil
       Jan Uddin  ....Ibn Idriss
       Jamal Awar  ....Compagnon Khoz Ahmed#1
       Akin Gazi  ....Saleeh
       Driss Roukhe  ....Magroof
       Ziad Ghaoui  ....Theologian
       Mostafa Gaafar  ....Khoz Ahmed    
       

◎简  介 
 
  剧情设定在上个世纪30年代,当时阿拉伯国家正处在石油热的初期。故事讲述一个博览群书的年轻王子(Tahar Rahim饰)在保守的父亲(Mark Strong饰)与思想开放的岳父(Antonio Banderas饰)对于石油的不同态度之间的权衡与抉择,与此同时,他也在复杂的利益纠葛与权力纷争之中渐渐成熟...
 
◎幕后制作
 
  《情人》导演让-雅克·阿诺新作。影片全程在沙哈拉沙漠拍摄。
 
  故事改编自Hans Ruesch的小说《心之南方:一部关于现代阿拉伯的小说》,讲述了30年代早期两大阿拉伯酋长之间的斗争。有人将本片形容为“《阿拉伯的劳伦斯》+《血色将至》”。
 


  General #1
    ID : 1 (0x1)
    Complete name : 00000.m2ts
    Format : BDAV
    Format/Info : Blu-ray Video
    File size : 26.1 GiB
    Duration : 2h 10mn
    Overall bit rate mode : Variable
    Overall bit rate : 28.7 Mbps
    Maximum Overall bit rate : 35.5 Mbps
  Video #4113
    ID : 4113 (0x1011)
    Menu ID : 1 (0x1)
    Format : AVC
    Format/Info : Advanced Video Codec
    Format profile : High@L4.1
    Format settings, CABAC : Yes
    Format settings, ReFrames : 2 frames
    Format settings, GOP : M=1, N=10
    Codec ID : 27
    Duration : 2h 10mn
    Bit rate mode : Variable
    Bit rate : 26.0 Mbps
    Width : 1 920 pixels
    Height : 1 080 pixels
    Display aspect ratio : 16:9
    Frame rate : 23.976 fps
    Color space : YUV
    Chroma subsampling : 4:2:0
    Bit depth : 8 bits
    Scan type : Progressive
    Bits/(Pixel*Frame) : 0.523
    Stream size : 23.6 GiB (91%)
  Audio #4352
    ID : 4352 (0x1100)
    Menu ID : 1 (0x1)
    Format : DTS
    Format/Info : Digital Theater Systems
    Muxing mode : Stream extension
    Codec ID : 134
    Duration : 2h 10mn
    Bit rate mode : Constant
    Bit rate : 1 510 Kbps
    Channel(s) : 6 channels
    Channel positions : Front: L C R, Side: L R, LFE
    Sampling rate : 48.0 KHz
    Bit depth : 16 bits
    Compression mode : Lossy
    Stream size : 1.37 GiB (5%)
    Language : English
  Text #4608
    ID : 4608 (0x1200)
    Menu ID : 1 (0x1)
    Format : PGS
    Codec ID : 144
    Language : Chinese
  Text #4609
    ID : 4609 (0x1201)
    Menu ID : 1 (0x1)
    Format : PGS
    Codec ID : 144
    Language : English

  评论这张
 
阅读(139)| 评论(0)
推荐 转载

历史上的今天

在LOFTER的更多文章

评论

<#--最新日志,群博日志--> <#--推荐日志--> <#--引用记录--> <#--博主推荐--> <#--随机阅读--> <#--首页推荐--> <#--历史上的今天--> <#--被推荐日志--> <#--上一篇,下一篇--> <#-- 热度 --> <#-- 网易新闻广告 --> <#--右边模块结构--> <#--评论模块结构--> <#--引用模块结构--> <#--博主发起的投票-->
 
 
 
 
 
 
 
 
 
 
 
 
 
 

页脚

网易公司版权所有 ©1997-2017