注册 登录  
 加关注
   显示下一条  |  关闭
温馨提示!由于新浪微博认证机制调整,您的新浪微博帐号绑定已过期,请重新绑定!立即重新绑定新浪微博》  |  关闭

逆风飞翔的鸟

追逐风中散落的默契~

 
 
 

日志

 
 
关于我

曾经迷惑于一份距离 曾经感动于一个传说 …… 在仆仆风中 我伸手 抓住你我的缘分 …… “傻傻”的你 能闻到风中 你我的默契吗?!

网易考拉推荐

【动作】The.Last.Rites.of.Ransom.Pride.2009.耻归故里  

2012-06-22 17:09:01|  分类: 动作 |  标签: |举报 |字号 订阅

  下载LOFTER 我的照片书  |
【动作】The.Last.Rites.of.Ransom.Pride.2009.耻归故里 - 归鸿 - 逆风飞翔的鸟

◎中文 名 耻归故里/Ransom Pride的最后仪式
◎英文 名 The Last Rites of Ransom Pride
◎年  代 2009
◎国  家 加拿大
◎类  别 剧情/动作/西部
◎语  言 英语
◎字  幕 中文
◎片  长 82 Mins
◎导  演 Tiller Russell
◎主  演 丽兹·卡潘 Lizzy Caplan  ....Juliette Flowers
      斯科特·斯比德曼 Scott Speedman  ....Ransom Pride
      蔻特·德·帕布罗 Cote de Pablo  ....Bruja
      杰森·普雷斯利 Jason Priestley  ....John
      彼特·丁拉基 Peter3e Dinklage  ....The Dwarf
      德怀特·尤科姆 Dwight Yoakam  ....Reverend Pride
      克里斯·克里斯托佛森 Kris Kristofferson  ...Shepherd Graves
      乔恩·福斯特 Jon Foster  ....Champ Pride


◎剧情简介

    一位名叫Juliette Flowers的女子发誓要把爱人Ransom Pride尸体从墨西哥运回位于德克萨斯的家。

    路上她不仅遇到了野蛮的赏金猎手,还遇到了凶残的牧师。幸好她有双胞胎散弹枪矮人和Ransom的神枪手弟弟一路帮忙。

 

  General #1
    ID : 1 (0x1)
    Complete name : 00000.m2ts
    Format : BDAV
    Format/Info : Blu-ray Video
    File size : 17.0 GiB
    Duration : 1h 22mn
    Overall bit rate mode : Variable
    Overall bit rate : 29.7 Mbps
    Maximum Overall bit rate : 35.5 Mbps
  Video #4113
    ID : 4113 (0x1011)
    Menu ID : 1 (0x1)
    Format : AVC
    Format/Info : Advanced Video Codec
    Format profile : High@L4.1
    Format settings, CABAC : Yes
    Format settings, ReFrames : 4 frames
    Codec ID : 27
    Duration : 1h 22mn
    Bit rate mode : Variable
    Bit rate : 27.8 Mbps
    Maximum bit rate : 35.0 Mbps
    Width : 1 920 pixels
    Height : 1 080 pixels
    Display aspect ratio : 16:9
    Frame rate : 23.976 fps
    Color space : YUV
    Chroma subsampling : 4:2:0
    Bit depth : 8 bits
    Scan type : Progressive
    Bits/(Pixel*Frame) : 0.560
    Stream size : 16.0 GiB (94%)
    Color primaries : BT.709-5, BT.1361, IEC 61966-2-4, SMPTE RP177
    Transfer characteristics : BT.709-5, BT.1361
    Matrix coefficients : BT.709-5, BT.1361, IEC 61966-2-4 709, SMPTE RP177
  Audio #4352
    ID : 4352 (0x1100)
    Menu ID : 1 (0x1)
    Format : AC-3
    Format/Info : Audio Coding 3
    Codec ID : 129
    Duration : 1h 22mn
    Bit rate : 640 Kbps
    Channel(s) : 5 channels
    Sampling rate : 48.0 KHz
    Compression mode : Lossy
    Stream size : 376 MiB (2%)
    Language : English
  Text #4608
    ID : 4608 (0x1200)
    Menu ID : 1 (0x1)
    Format : PGS
    Codec ID : 144
    Language : Chinese
  Text #4609
    ID : 4609 (0x1201)
    Menu ID : 1 (0x1)
    Format : PGS
    Codec ID : 144
    Language : Chinese
  Text #4610
    ID : 4610 (0x1202)
    Menu ID : 1 (0x1)
    Format : PGS
    Codec ID : 144
    Language : German
  Text #4611
    ID : 4611 (0x1203)
    Menu ID : 1 (0x1)
    Format : PGS
    Codec ID : 144
    Language : German

  评论这张
 
阅读(102)| 评论(0)
推荐 转载

历史上的今天

在LOFTER的更多文章

评论

<#--最新日志,群博日志--> <#--推荐日志--> <#--引用记录--> <#--博主推荐--> <#--随机阅读--> <#--首页推荐--> <#--历史上的今天--> <#--被推荐日志--> <#--上一篇,下一篇--> <#-- 热度 --> <#-- 网易新闻广告 --> <#--右边模块结构--> <#--评论模块结构--> <#--引用模块结构--> <#--博主发起的投票-->
 
 
 
 
 
 
 
 
 
 
 
 
 
 

页脚

网易公司版权所有 ©1997-2017