注册 登录  
 加关注
   显示下一条  |  关闭
温馨提示!由于新浪微博认证机制调整,您的新浪微博帐号绑定已过期,请重新绑定!立即重新绑定新浪微博》  |  关闭

逆风飞翔的鸟

追逐风中散落的默契~

 
 
 

日志

 
 
关于我

曾经迷惑于一份距离 曾经感动于一个传说 …… 在仆仆风中 我伸手 抓住你我的缘分 …… “傻傻”的你 能闻到风中 你我的默契吗?!

网易考拉推荐

【动作】The.Big.Heat.1953.伟大的警察  

2012-06-22 17:05:27|  分类: 动作 |  标签: |举报 |字号 订阅

  下载LOFTER 我的照片书  |
【动作】The.Big.Heat.1953.伟大的警察 - 归鸿 - 逆风飞翔的鸟

◎译  名 伟大的警察/芝加哥剿匪战/匿形火线
◎片  名 The Big Heat
◎年  代 1953
◎国  家 美国
◎类  别 犯罪/剧情/神秘/惊悚
◎IMDB链接  http://www.imdb.com/title/tt0045555/
◎语  言 英语
◎字  幕 中文
◎片  长 89 mins 34 seconds
◎导  演 弗里茨·朗 Fritz Lang
◎主  演 格伦·福特 Glenn Ford ....Det. Sgt. Dave Bannion
      格洛丽亚·格雷厄姆 Gloria Grahame ....Debby Marsh
      李·马文 Lee Marvin ....Vince Stone
      Jocelyn Brando ....Katie Bannion
      Alexander Scourby ....Mike Lagana
      Jeanette Nolan ....Bertha Duncan
      Peter Whitney ....Tierney
      Willis Bouchey ....Lt. Ted Wilks
      Robert Burton ....Det. Gus Burke
      Adam Williams ....Larry Gordon
      Howard Wendell ....Police Commissioner Higgins
      Chris Alcaide ....George Rose
      Michael Granger ....Hugo (police clerk)
      Dorothy Green ....Lucy Chapman
      卡罗琳·琼斯 Carolyn Jones ....Doris
      Ric Roman ....Baldy
      Dan Seymour ....Mr. Atkins
      Edith Evanson ....Selma Parker
      Phil Arnold ....Retreat Waiter (uncredited)
      Linda Bennett ....Joyce Bannion (uncredited)
      Charles Cane ....Police Guard Outside Lagana Home (uncredited)
      Phil Chambers ....Hettrick (uncredited)
      John Close ....Policeman (uncredited)
      Sidney Clute ....Retreat Bartender (uncredited)
      John Crawford ....Al - Bannion's Brother-in-Law (uncredited)
      John Doucette ....Mark Reiner (uncredited)
      Kathryn Eames ....Marge - Bannion's Sister-in-Law (uncredited)
      Al Eben ....Harry Shoenstein (uncredited)
      Douglas Evans ....Councilman Gillen (uncredited)
      Fritz Apking ....Sailor (uncredited)
      Jimmy Gray ....Man (uncredited)
      Byron Kane ....Police Surgeon (uncredited)
      Donald Kerr ....Cabby (uncredited)
      Lyle Latell ....Moving Man (uncredited)
      Harry Lauter ....Hank O'Connell (uncredited)
      Nico Lek ....Canteen Patron (uncredited)
      Celia Lovsky ....Lagana's Mother in Portrait (uncredited)
      Herbert Lytton ....Martin (uncredited)
      Mike Mahoney ....Dixon (uncredited)
      Laura Mason ....B-Girl (uncredited)
      Paul Maxey ....George Fuller (uncredited)
      Joseph Mell ....Medical Examiner (uncredited)
      John Merton ....Man (uncredited)
      Patrick Miller ....Intern (uncredited)
      William Murphy ....Reds (uncredited)
      Ezelle Poule ....Mrs Tucker (uncredited)
      Norma Randall ....Jill (uncredited)
      迈克尔·罗斯 Michael Ross ....Segal (uncredited)
      Ted Stanhope ....Lagana's Butler (uncredited)
      Robert Stevenson ....Bill Rutherford (uncredited)
      William Vedder ....Janitor (uncredited)


◎简  介

  侦探Dave Bannion正调查一个警官的自杀事件,一切都正常进行着,直到有一个酒吧女声称她有证明警官是被谋杀的证据,而此时Bonnion的上级叫他不要管这个案子。没有找到犯罪嫌疑人,Bannion怀疑是黑帮老大Lagana,一个狂热地从肮脏中获取他的自由生活的人。后来,一颗指向Bannion的炸?弹杀手了一个无辜的旁观者,于是Bannion犹如一把白热的复仇之剑,开始独自对付这个腐败的世界。

 

  General #1
    ID : 1 (0x1)
    Complete name : 00000.m2ts
    Format : BDAV
    Format/Info : Blu-ray Video
    File size : 21.7 GiB
    Duration : 1h 29mn
    Overall bit rate mode : Variable
    Overall bit rate : 34.7 Mbps
    Maximum Overall bit rate : 35.5 Mbps
  Video #4113
    ID : 4113 (0x1011)
    Menu ID : 1 (0x1)
    Format : AVC
    Format/Info : Advanced Video Codec
    Format profile : High@L4.1
    Format settings, CABAC : Yes
    Format settings, ReFrames : 4 frames
    Codec ID : 27
    Duration : 1h 29mn
    Bit rate mode : Variable
    Bit rate : 31.0 Mbps
    Maximum bit rate : 38.0 Mbps
    Width : 1 920 pixels
    Height : 1 080 pixels
    Display aspect ratio : 16:9
    Frame rate : 23.976 fps
    Color space : YUV
    Chroma subsampling : 4:2:0
    Bit depth : 8 bits
    Scan type : Progressive
    Bits/(Pixel*Frame) : 0.624
    Stream size : 19.4 GiB (89%)
  Audio #4352
    ID : 4352 (0x1100)
    Menu ID : 1 (0x1)
    Format : DTS
    Format/Info : Digital Theater Systems
    Format profile : MA / Core
    Muxing mode : Stream extension
    Codec ID : 134
    Duration : 1h 29mn
    Bit rate mode : Variable
    Bit rate : 800 Kbps / 755 Kbps
    Channel(s) : 1 channel
    Channel positions : Front: C
    Sampling rate : 48.0 KHz
    Bit depth : 24 bits
    Compression mode : Lossless / Lossy
    Language : English
  Audio #4353
    ID : 4353 (0x1101)
    Menu ID : 1 (0x1)
    Format : DTS
    Format/Info : Digital Theater Systems
    Muxing mode : Stream extension
    Codec ID : 134
    Duration : 1h 29mn
    Bit rate mode : Constant
    Bit rate : 1 510 Kbps
    Channel(s) : 2 channels
    Channel positions : Front: L R
    Sampling rate : 48.0 KHz
    Bit depth : 16 bits
    Compression mode : Lossy
    Stream size : 966 MiB (4%)
    Language : English
  Text #4608
    ID : 4608 (0x1200)
    Menu ID : 1 (0x1)
    Format : PGS
    Codec ID : 144
    Language : Chinese
  Text #4609
    ID : 4609 (0x1201)
    Menu ID : 1 (0x1)
    Format : PGS
    Codec ID : 144
    Language : Chinese
  Text #4610
    ID : 4610 (0x1202)
    Menu ID : 1 (0x1)
    Format : PGS
    Codec ID : 144
    Language : English

  评论这张
 
阅读(123)| 评论(0)
推荐 转载

历史上的今天

在LOFTER的更多文章

评论

<#--最新日志,群博日志--> <#--推荐日志--> <#--引用记录--> <#--博主推荐--> <#--随机阅读--> <#--首页推荐--> <#--历史上的今天--> <#--被推荐日志--> <#--上一篇,下一篇--> <#-- 热度 --> <#-- 网易新闻广告 --> <#--右边模块结构--> <#--评论模块结构--> <#--引用模块结构--> <#--博主发起的投票-->
 
 
 
 
 
 
 
 
 
 
 
 
 
 

页脚

网易公司版权所有 ©1997-2017