注册 登录  
 加关注
   显示下一条  |  关闭
温馨提示!由于新浪微博认证机制调整,您的新浪微博帐号绑定已过期,请重新绑定!立即重新绑定新浪微博》  |  关闭

逆风飞翔的鸟

追逐风中散落的默契~

 
 
 

日志

 
 
关于我

曾经迷惑于一份距离 曾经感动于一个传说 …… 在仆仆风中 我伸手 抓住你我的缘分 …… “傻傻”的你 能闻到风中 你我的默契吗?!

网易考拉推荐

【动作】Before.And.After.1996.天伦劫  

2012-06-21 21:24:43|  分类: 动作 |  标签: |举报 |字号 订阅

  下载LOFTER 我的照片书  |
【动作】Before.And.After.1996.天伦劫 - 归鸿 - 逆风飞翔的鸟

◎译  名 天伦劫/凶杀后/前前后后/前因后果
◎片  名 Before and After
◎年  代 1996
◎国  家 美国
◎类  别 犯罪/剧情/神秘
◎语  言 英语
◎IMDB链接  http://www.imdb.com/title/tt0115645/
◎片  长 108 mins
◎导  演 巴贝特·施罗德 Barbet Schroeder
◎主  演 梅丽尔·斯特里普 Meryl Streep ....Dr. Carolyn Ryan
       连姆·尼森 Liam Neeson ....Ben Ryan
       爱德华·福隆 Edward Furlong ....Jacob Ryan
       Julia Weldon ....Judith Ryan
       阿尔弗雷德·莫里纳 Alfred Molina ....Panos Demeris
       Daniel von Bargen ....Fran Conklin
       约翰·赫德 John Heard ....Wendell Bye
       Ann Magnuson ....Terry Taverner
       Alison Folland ....Martha Taverner
       Kaiulani Lee ....Marian Raynor, Prosecutor
       拉里·派恩 Larry Pine ....Dr. Tom McAnally
       Ellen Lancaster ....Panos' Assistant
       韦斯利·阿迪 Wesley Addy ....Judge Grady
       Oliver Graney ....T.J
       Bernadette Quigley ....T.J.'s Mom
       Pamela Blair ....Dr. Ryan's Assistant
       John Wylie ....Dr. Trygve Hanson
       John Deyle ....Doctor #1
       Timothy Patrick Cavanaugh ....Young Policeman (as Tim Cavanaugh)
       John Webber ....Hardware Clerk
       Jay Potter ....TV Reporter
       Sharon Ullrick ....Female Bailiff
       Richard Westenberg ....Journalist #1
       Susan Pratt ....Journalist #2
       Nino Del Padre ....Court Defendant (uncredited)
       保罗·吉亚玛提 Paul Giamatti ....Courtroom Audience (uncredited)
       Jordan Lund ....Bailiff (uncredited)
       Erin Liz Peck ....Protester (uncredited)
       Kevin Craig West ....Photo Journalist (uncredited)
 

◎简  介
 
  故事发生于美国新英格兰小镇,素来受到镇民尊重的莱恩夫妇突然饱受指责,因为他们的长子杰可卷入了一宗凶杀案,死者是他的女友,而他在事发后神秘失踪,诸多证据对他不利。父母不相信杰可是杀人凶手,但两人的不同个性却导致他们在处理这件事时产生很大歧见,整个家庭陷入崩溃边缘。

 

  General #1
    ID : 1 (0x1)
    Complete name : 00000.m2ts
    Format : BDAV
    Format/Info : Blu-ray Video
    File size : 20.4 GiB
    Duration : 1h 47mn
    Overall bit rate mode : Variable
    Overall bit rate : 27.1 Mbps
    Maximum Overall bit rate : 35.5 Mbps
  Video #4113
    ID : 4113 (0x1011)
    Menu ID : 1 (0x1)
    Format : AVC
    Format/Info : Advanced Video Codec
    Format profile : High@L4.1
    Format settings, CABAC : Yes
    Format settings, ReFrames : 4 frames
    Format settings, GOP : M=3, N=24
    Codec ID : 27
    Duration : 1h 47mn
    Bit rate mode : Variable
    Bit rate : 23.0 Mbps
    Maximum bit rate : 35.0 Mbps
    Width : 1 920 pixels
    Height : 1 080 pixels
    Display aspect ratio : 16:9
    Frame rate : 23.976 fps
    Standard : NTSC
    Color space : YUV
    Chroma subsampling : 4:2:0
    Bit depth : 8 bits
    Scan type : Progressive
    Bits/(Pixel*Frame) : 0.462
    Stream size : 17.3 GiB (85%)
    Color primaries : BT.709-5, BT.1361, IEC 61966-2-4, SMPTE RP177
    Transfer characteristics : BT.709-5, BT.1361
    Matrix coefficients : BT.709-5, BT.1361, IEC 61966-2-4 709, SMPTE RP177
  Audio #4352
    ID : 4352 (0x1100)
    Menu ID : 1 (0x1)
    Format : DTS
    Format/Info : Digital Theater Systems
    Muxing mode : Stream extension
    Codec ID : 134
    Duration : 1h 47mn
    Bit rate mode : Constant
    Bit rate : 3 089 Kbps / 755 Kbps
    Channel(s) : 6 channels
    Channel positions : Front: L C R, Side: L R, LFE
    Sampling rate : 48.0 KHz
    Bit depth : 24 bits
    Compression mode : Lossy
    Stream size : 2.31 GiB (11%)
    Language : English
  Text #4608
    ID : 4608 (0x1200)
    Menu ID : 1 (0x1)
    Format : PGS
    Codec ID : 144
    Language : Chinese
  Text #4609
    ID : 4609 (0x1201)
    Menu ID : 1 (0x1)
    Format : PGS
    Codec ID : 144
    Language : English

  评论这张
 
阅读(89)| 评论(0)
推荐 转载

历史上的今天

在LOFTER的更多文章

评论

<#--最新日志,群博日志--> <#--推荐日志--> <#--引用记录--> <#--博主推荐--> <#--随机阅读--> <#--首页推荐--> <#--历史上的今天--> <#--被推荐日志--> <#--上一篇,下一篇--> <#-- 热度 --> <#-- 网易新闻广告 --> <#--右边模块结构--> <#--评论模块结构--> <#--引用模块结构--> <#--博主发起的投票-->
 
 
 
 
 
 
 
 
 
 
 
 
 
 

页脚

网易公司版权所有 ©1997-2017