注册 登录  
 加关注
   显示下一条  |  关闭
温馨提示!由于新浪微博认证机制调整,您的新浪微博帐号绑定已过期,请重新绑定!立即重新绑定新浪微博》  |  关闭

逆风飞翔的鸟

追逐风中散落的默契~

 
 
 

日志

 
 
关于我

曾经迷惑于一份距离 曾经感动于一个传说 …… 在仆仆风中 我伸手 抓住你我的缘分 …… “傻傻”的你 能闻到风中 你我的默契吗?!

网易考拉推荐

【动作】A.Perfect.World.1993.完美的世界  

2012-06-21 14:20:24|  分类: 动作 |  标签: |举报 |字号 订阅

  下载LOFTER 我的照片书  |
【动作】A.Perfect.World.1993.完美的世界 - 归鸿 - 逆风飞翔的鸟

◎译   名 完美的世界/强盗保镖/完美世界
◎片   名 A Perfect World
◎年   代 1993年
◎地   区 美国
◎类   别 剧情/惊悚/犯罪
◎IMDB 链接 http://www.imdb.com/title/tt0107808/
◎语   言 英语
◎字   幕 中文
◎片   长 138 mins 20 seconds
◎导   演 克林特·伊斯特伍德 Clint Eastwood
◎演   员 凯文·科斯特纳 Kevin Costner  ....Robert 'Butch' Haynes
             克林特·伊斯特伍德 Clint Eastwood  ....Chief Red Garnett
             劳拉·邓恩 Laura Dern  ....Sally Gerber
             T.J.劳瑟 T.J. Lowther  ....Phillip 'Buzz' Perry
             布莱德利·惠特福德 Bradley Whitford  ....Bobby Lee
             布鲁斯·麦克吉尔 Bruce McGill  ....Paul Saunders
             Keith Szarabajka  ....Terry Pugh
             Leo Burmester  ....Tom Adler
             Paul Hewitt  ....Dick Suttle
             雷·迈克金农 Ray McKinnon  ....Bradley
             Jennifer Griffin  ....Gladys Perry
             Leslie Flowers  ....Naomi Perry
             Belinda Flowers  ....Ruth Perry
             Darryl Cox  ....Mr. Hughes
             Jay Whiteaker  ....Superman
             Taylor Suzanna McBride  ....Tinkerbell
             Christopher Reagan Ammons  ....Dancing Skeleton
             Mark Voges  ....Larry Billings
             Vernon Grote  ....Prison Guard
             James Jeter  ....Oldtimer
             Ed Geldart  ....Fred Cummings
             Nik Hagler  ....General Store Manager
             Gary Moody  ....Local Sheriff
             George Haynes  ....Farmer
             玛丽埃塔·马利奇 Marietta Marich  ....Farmer's Wife
             Rodger Boyce  ....Mr. Willits
             Lucy Lee Flippin  ....Lucy
             Elizabeth Ruscio  ....Paula
             David Kroll  ....Newscaster
             Gabriel Folse  ....Officer Terrance
             Gil Glasgow  ....Officer Pete
             Dennis Letts  ....Governor
             John Hussey  ....Governor's Aide
             Margaret Bowman  ....Trick 'r Treat Lady
             约翰·M·杰克逊 John M. Jackson  ....Bob Fielder
             Connie Cooper  ....Bob's Wife
             Cameron Finley  ....Bob Fielder, Jr.
             Katy Wottrich  ....Patsy Fielder
             Marco Perella  ....Road Block Officer
             Linda Hart  ....Eileen, Waitress
             Brandon Smith  ....Officer Jones
             George Orrison  ....Officer Orrison
             Wayne Dehart  ....Mack, the Farmer
             玛丽·爱丽丝 Mary Alice  ....Lottie, Mack's Wife
             Kevin Jamal Woods  ....Cleveland, Mack's Grandson (as Kevin Woods)
             Tony Frank  ....Arch Andrews, Farm Owner
             Woody Watson  ....Lt. Hendricks
             James W. Gavin  ....Helicopter Pilot
             Craig Hosking  ....Helicopter Pilot
             Jimmy Ray Pickens  ....Cop (uncredited)
             Libby Villari  ....Reporter (uncredited)
             John M. Jackson  ....Bob Fielder
             Greg Stechman  ....Teen Onlooker (uncredited)
 

◎简   介
 
  单亲孩子菲利普·佩里(T·J·劳瑟 T.J. Lowther 饰)的母亲对他管教甚严,8岁的小菲利普甚至从未参加过一次鬼节讨糖果的游戏,因此他失去了很多孩子应当得到的乐趣。一天,附近州监狱的两名罪犯越狱成功,闯入菲利普家。特里想对菲利普的母亲非礼,被另一个囚犯布奇(凯文·科斯特纳 Kevin Costner 饰)阻止了,俩人挟持菲利普作为人质匆匆逃走。正面临大选的州长为了挽回自己的声誉和拉拢选票,立刻命令警方追捕逃犯。于是,警方成立了以瑞德·加尼特(克林特·伊斯特伍德 Clint Eastwood 饰)和女犯罪学专家萨利·格柏(劳拉·邓恩 Laura Dern 饰)及神枪手三人为首的追捕小组。瑞德·加尼特与罪犯布什打过交道,那时布什尚是孩子,因为犯有暴力行为,瑞德把其父送入教养所,最终使布什也因无人教养而沦为罪犯。
 
  两名逃犯因关系紧张而发生冲突,最终,布奇杀死了特里并带着菲利普继续驾车逃跑。途中,布奇与菲利普建立了一种如同父子般的关系,布奇给小男孩带来了他从未享受过的生活乐趣。布奇希望到阿拉斯加去开始新的生活,路上,布缺让菲利普把母亲禁止他做的事一一列出并准备让他逐个尝试。他们闯入一户人家,用枪逼着主人拿出食品充饥;又偷了一套万圣节的脸谱和衣服让菲利普穿着玩;布钱还让菲利普坐在车顶上享受开车乐趣。后来,他们遇到了黑人农工迈克并应邀到他家里过夜。次日清晨,布奇看见迈克无缘无故地殴打儿子,感到不平的他失去控制掏出枪来逼着迈克向其子道歉。站在一旁的菲利普担心布什再度杀人,于是他取出手枪朝布什的小腹开了一枪。
 
  伴随着枪声,布奇腹部中弹,惊恐的菲利普将枪扔到了井里独自向远处跑去。这时,警长和菲利普的母亲匆忙赶到。母亲答应让菲利普今后享受一个孩子应有的快乐。布奇放开孩子,让他回到母亲的身边。狙击手时刻瞄准着布奇。雷德要狙击手等待命令,自己则走向布奇试图说服他投降。菲利普缓缓地朝母亲走去,突然又转身回到布奇身边,他向布奇道歉,也真想和布奇在一起,瑞德放下枪向他俩走去。这时,身负重伤的布奇掏出父亲离去时送他的一张明信片准备送给菲利普,但那神枪手误认为布奇准备掏枪而抢先射杀了他。最后,菲利普乘警察的直升机离去,缓缓的离开了美丽的大草原和布奇……
 
  菲利普被母亲带回家,但他永远也忘不了和布奇在一起的快乐而惊险的日子。
 

◎一句话评论
 
也许在《完美的世界》里有不少商业噱头,但是伊斯特伍德在影片中对人生、自由和信仰的探讨绝不比任何一部法国出品的“作者电影”逊色。
 ——《芝加哥太阳报》   
 
从表面上看起来,《完美世界》也许不是那么适合伊斯特伍德和科斯特纳,也许他们应该去拍摄一部“西部片”。但是无论如何,他们都奉献了自己无懈可击的演出,这就是超级巨星的魅力。
 ——《华盛顿邮报》   
 
伊斯特伍德这次突破了自己以往轻车熟路的形象,但是毫无疑问,他的突破是成功的。他和科斯特纳在影片中的对手戏绝对是这个时代绝响,有多少人见过两个奥斯卡最佳导演在银幕上对飙演技的呢?
 ——《滚石杂志》   
 
很显然,伊斯特伍德对处理人性题材的故事非常顺手,也非常老练。他很习惯地将人物放在一个不合时宜的地点,然后让他遭受一些不合时宜的事件。被逼上梁山的主角会采取行动,然后伊斯特伍德就可以大方地登场,摆平一切。正是这种轻车熟路的拍摄,让影片看起来既自然又流畅,毫无拖沓之感。
 ——《综艺杂志》

 

  General #1
    ID : 1 (0x1)
    Complete name : 00000.m2ts
    Format : BDAV
    Format/Info : Blu-ray Video
    File size : 33.2 GiB
    Duration : 2h 18mn
    Overall bit rate mode : Variable
    Overall bit rate : 34.4 Mbps
    Maximum Overall bit rate : 35.5 Mbps
  Video #4113
    ID : 4113 (0x1011)
    Menu ID : 1 (0x1)
    Format : AVC
    Format/Info : Advanced Video Codec
    Format profile : High@L4.1
    Format settings, CABAC : Yes
    Format settings, ReFrames : 2 frames
    Format settings, GOP : M=1, N=10
    Codec ID : 27
    Duration : 2h 18mn
    Bit rate mode : Variable
    Bit rate : 29.9 Mbps
    Width : 1 920 pixels
    Height : 1 080 pixels
    Display aspect ratio : 16:9
    Frame rate : 23.976 fps
    Color space : YUV
    Chroma subsampling : 4:2:0
    Bit depth : 8 bits
    Scan type : Progressive
    Bits/(Pixel*Frame) : 0.602
    Stream size : 28.9 GiB (87%)
  Audio #4352-253-113
    ID : 4352 (0x1100)-253 (0xFD)-113 (0x71)
    Menu ID : 1 (0x1)
    Format : DTS
    Format/Info : Digital Theater Systems
    Format profile : MA / Core
    Muxing mode : Stream extension
    Codec ID : 134
    Duration : 2h 18mn
    Bit rate mode : Variable
    Bit rate : 1 561 Kbps / 1 510 Kbps
    Channel(s) : 6 channels
    Channel positions : Front: L C R, Side: L R, LFE
    Sampling rate : 48.0 KHz
    Bit depth : 24 bits
    Compression mode : Lossless / Lossy
    Language : English
  Audio #4352-208
    ID : 4352 (0x1100)-208 (0xD0)
    Menu ID : 1 (0x1)
    Format : DTS
    Format/Info : Digital Theater Systems
    Duration : 2h 18mn
    Bit rate mode : Constant
    Bit rate : 1 510 Kbps
    Channel(s) : 6 channels
    Channel positions : Front: L C R, Side: L R, LFE
    Sampling rate : 48.0 KHz
    Bit depth : 24 bits
    Compression mode : Lossy
    Stream size : 1.46 GiB (4%)
  Text #4608
    ID : 4608 (0x1200)
    Menu ID : 1 (0x1)
    Format : PGS
    Codec ID : 144
    Language : Chinese
  Text #4609
    ID : 4609 (0x1201)
    Menu ID : 1 (0x1)
    Format : PGS
    Codec ID : 144
    Language : Chinese
  Text #4610
    ID : 4610 (0x1202)
    Menu ID : 1 (0x1)
    Format : PGS
    Codec ID : 144
    Language : Japanese
  Text #4611
    ID : 4611 (0x1203)
    Menu ID : 1 (0x1)
    Format : PGS
    Codec ID : 144
    Language : English
  Text #4612
    ID : 4612 (0x1204)
    Menu ID : 1 (0x1)
    Format : PGS
    Codec ID : 144
    Language : French
  Text #4613
    ID : 4613 (0x1205)
    Menu ID : 1 (0x1)
    Format : PGS
    Codec ID : 144
    Language : German
  Text #4614
    ID : 4614 (0x1206)
    Menu ID : 1 (0x1)
    Format : PGS
    Codec ID : 144
    Language : Spanish
  Text #4615
    ID : 4615 (0x1207)
    Menu ID : 1 (0x1)
    Format : PGS
    Codec ID : 144
    Language : Dutch
  Text #4616
    ID : 4616 (0x1208)
    Menu ID : 1 (0x1)
    Format : PGS
    Codec ID : 144
    Language : Spanish
  Text #4617
    ID : 4617 (0x1209)
    Menu ID : 1 (0x1)
    Format : PGS
    Codec ID : 144
    Language : Portuguese
  Text #4618
    ID : 4618 (0x120A)
    Menu ID : 1 (0x1)
    Format : PGS
    Codec ID : 144
    Language : Danish
  Text #4619
    ID : 4619 (0x120B)
    Menu ID : 1 (0x1)
    Format : PGS
    Codec ID : 144
    Language : Finnish
  Text #4620
    ID : 4620 (0x120C)
    Menu ID : 1 (0x1)
    Format : PGS
    Codec ID : 144
    Language : Norwegian
  Text #4621
    ID : 4621 (0x120D)
    Menu ID : 1 (0x1)
    Format : PGS
    Codec ID : 144
    Language : Swedish
  Text #4622
    ID : 4622 (0x120E)
    Menu ID : 1 (0x1)
    Format : PGS
    Codec ID : 144
    Language : Japanese

  评论这张
 
阅读(211)| 评论(0)
推荐 转载

历史上的今天

在LOFTER的更多文章

评论

<#--最新日志,群博日志--> <#--推荐日志--> <#--引用记录--> <#--博主推荐--> <#--随机阅读--> <#--首页推荐--> <#--历史上的今天--> <#--被推荐日志--> <#--上一篇,下一篇--> <#-- 热度 --> <#-- 网易新闻广告 --> <#--右边模块结构--> <#--评论模块结构--> <#--引用模块结构--> <#--博主发起的投票-->
 
 
 
 
 
 
 
 
 
 
 
 
 
 

页脚

网易公司版权所有 ©1997-2017