注册 登录  
 加关注
   显示下一条  |  关闭
温馨提示!由于新浪微博认证机制调整,您的新浪微博帐号绑定已过期,请重新绑定!立即重新绑定新浪微博》  |  关闭

逆风飞翔的鸟

追逐风中散落的默契~

 
 
 

日志

 
 
关于我

曾经迷惑于一份距离 曾经感动于一个传说 …… 在仆仆风中 我伸手 抓住你我的缘分 …… “傻傻”的你 能闻到风中 你我的默契吗?!

网易考拉推荐

【亚洲】Dil.Wale.Dulhania.Le.Jayenge.1995.勇夺芳心  

2012-06-21 10:42:53|  分类: 亚洲 |  标签: |举报 |字号 订阅

  下载LOFTER 我的照片书  |
【亚洲】Dil.Wale.Dulhania.Le.Jayenge.1995.勇夺芳心 - 归鸿 - 逆风飞翔的鸟

◎译  名 勇夺芳心
◎片  名 Dilwale Dulhania Le Jayenge
◎年  代 1995
◎国  家 印度
◎类  别 爱情/家庭/剧情/歌舞/喜剧
◎IMDB链接  http://www.imdb.com/title/tt0112870/
◎片  长 189 Mins
◎导  演 阿迪提亚·乔普拉 Aditya Chopra
◎主  演 沙鲁克·罕 Shahrukh Khan ....Raj Malhotra (as Shah Rukh Khan)
       卡卓尔 Kajol ....Simran Singh
       阿莫瑞什?普瑞 Amrish Puri ....Chaudhry Baldev Singh
       Farida Jalal ....Lajwanti
       阿努潘?凯尔 Anupam Kher ....Dharamvir Malhotra
        Satish Shah ....Ajit Singh
       Achala Sachdev ....Simran's Grandmother
       Himani Shivpuri ....Simran's Aunt
       Pooja Ruparel ....Rajeshwari/Chutki
       Damyanti Puri
       Lalit Tiwari ....Simran's Uncle
       Hemlata Deepak ....Simran's friend
       Mohit Kumar
       Mansoor Merchant
       Govind Khatri
       Rajesh Bhatija
       Shanker Iyer
       Baby Nupur
       Baby Raashi
       Anaita ....Sheena, Simran's friend
       Arjun Sablok ....Roby, Raj's friend
       卡伦?乔哈尔 Karan Johar ....Rocky, Raj's friend
       Pallavi ....(as Pallavi Vyas)
       Anita Shroff
       Tulika
       Parmeet Sethi ....Kuljeet
       Mandira Bedi ....Preeti Singh
   
 
◎简  介
 
  “不是冤家不聚头”,一次麻烦不断的欧洲之旅让拉加与斯曼从互相挑刺斗法到彼此相爱。可惜佳人已是名花有主,就要回印度与未婚夫库里完婚。怎样在几天之内让固执传统的未来岳父接受自己?从虎视眈眈的库里手中夺走新娘?
 
  拉加调动所有聪明才智义无返顾踏上夺取佳人的漫漫征途……

 

  General #1
    ID : 1 (0x1)
    Complete name : 00000.m2ts
    Format : BDAV
    Format/Info : Blu-ray Video
    File size : 34.1 GiB
    Duration : 3h 9mn
    Overall bit rate mode : Variable
    Overall bit rate : 25.8 Mbps
    Maximum Overall bit rate : 35.5 Mbps
  Video #4113
    ID : 4113 (0x1011)
    Menu ID : 1 (0x1)
    Format : AVC
    Format/Info : Advanced Video Codec
    Format profile : High@L4.1
    Format settings, CABAC : Yes
    Format settings, ReFrames : 4 frames
    Format settings, GOP : M=3, N=18
    Codec ID : 27
    Duration : 3h 9mn
    Bit rate mode : Variable
    Bit rate : 23.3 Mbps
    Maximum bit rate : 35.0 Mbps
    Width : 1 920 pixels
    Height : 1 080 pixels
    Display aspect ratio : 16:9
    Frame rate : 24.000 fps
    Standard : NTSC
    Color space : YUV
    Chroma subsampling : 4:2:0
    Bit depth : 8 bits
    Scan type : Progressive
    Bits/(Pixel*Frame) : 0.467
    Stream size : 30.8 GiB (90%)
    Color primaries : BT.709-5, BT.1361, IEC 61966-2-4, SMPTE RP177
    Transfer characteristics : BT.709-5, BT.1361
    Matrix coefficients : BT.709-5, BT.1361, IEC 61966-2-4 709, SMPTE RP177
  Audio #4352
    ID : 4352 (0x1100)
    Menu ID : 1 (0x1)
    Format : DTS
    Format/Info : Digital Theater Systems
    Codec ID : 130
    Duration : 3h 9mn
    Bit rate mode : Constant
    Bit rate : 1 510 Kbps
    Channel(s) : 6 channels
    Channel positions : Front: L C R, Side: L R, LFE
    Sampling rate : 48.0 KHz
    Bit depth : 16 bits
    Compression mode : Lossy
    Stream size : 1.99 GiB (6%)
    Language : Hindi
  Text #4608
    ID : 4608 (0x1200)
    Menu ID : 1 (0x1)
    Format : PGS
    Codec ID : 144
    Delay relative to video : 1s 458ms
    Language : Chinese

  评论这张
 
阅读(308)| 评论(0)
推荐 转载

历史上的今天

在LOFTER的更多文章

评论

<#--最新日志,群博日志--> <#--推荐日志--> <#--引用记录--> <#--博主推荐--> <#--随机阅读--> <#--首页推荐--> <#--历史上的今天--> <#--被推荐日志--> <#--上一篇,下一篇--> <#-- 热度 --> <#-- 网易新闻广告 --> <#--右边模块结构--> <#--评论模块结构--> <#--引用模块结构--> <#--博主发起的投票-->
 
 
 
 
 
 
 
 
 
 
 
 
 
 

页脚

网易公司版权所有 ©1997-2017