注册 登录  
 加关注
   显示下一条  |  关闭
温馨提示!由于新浪微博认证机制调整,您的新浪微博帐号绑定已过期,请重新绑定!立即重新绑定新浪微博》  |  关闭

逆风飞翔的鸟

追逐风中散落的默契~

 
 
 

日志

 
 
关于我

曾经迷惑于一份距离 曾经感动于一个传说 …… 在仆仆风中 我伸手 抓住你我的缘分 …… “傻傻”的你 能闻到风中 你我的默契吗?!

网易考拉推荐

【剧情】Jawbreaker.1999.风骚坏姊妹  

2012-06-18 14:09:37|  分类: 剧情 |  标签: |举报 |字号 订阅

  下载LOFTER 我的照片书  |
【剧情】Jawbreaker.1999.风骚坏姊妹 - 归鸿 - 逆风飞翔的鸟

【译  名】风骚坏姊妹/圆形硬糖
【片  名】Jawbreaker
【年  代】1999
【国  家】美国
【类  别】喜剧/犯罪
【IMDB链接】http://www.imdb.com/title/tt0155776
【片  长】86 Mins
【导  演】Darren Stein
【主  演】罗丝·麦高恩 Rose McGowan  ....Courtney Alice Shayne
       吕蓓卡·盖哈特 Rebecca Gayheart  ....Julie Freeman
       朱莉·本茨 Julie Benz  ....Marcie Fox
       朱迪·格雷尔 Judy Greer  ....Fern Mayo/Vylette
       Ethan Erickson  ....Dane Sanders
       Chad Christ  ....Zack Tartak
       夏洛特·阿雅娜 Charlotte Ayanna  ....Elizabeth 'Liz' Purr (as Charlotte Roldan)
       塔缇娜·阿里 Tatyana Ali  ....Brenda Chad
       PJ·索尔丝 P.J. Soles  ....Mrs. Purr
       威廉姆·卡特 William Katt  ....Mr. Purr
       杰夫·康纳威 Jeff Conaway  ....Marcie's Father
       玛丽莲·曼森 Marilyn Manson  ....The Stranger
       卡洛·凯恩 Carol Kane  ....Ms. Sherwood
       帕姆·格里尔 Pam Grier  ....Detective Vera Cruz
       Kall Harrington  ....Superstar #1
       Alexis Smart  ....Superstar #2
       Allie Moss  ....Superstar #3 (as Allison Thayer)
       Alexandra Adi  ....Cheerleader #1
       丽萨·罗宾·凯莉 Lisa Robin Kelly  ....Cheerleader #2
       Michael McLafferty  ....College Stud
       Joni Allen  ....Make-Up Monger #1
       Vylette Fagerholm  ....Make-Up Monger #2
       Ann Zupa  ....Gothic Girl
       Brian Gattas  ....Drama Student #1
       Claudine Claudio  ....Drama Student #2
       Jessica Gaynes  ....Wannabe #1
       Jane Leigh Connelly  ....Wannabe #2 (as Jane Connelly)
       Tommy McKay  ....Officer
       Marita Black  ....Dreamgirl #1
       Dan Gerrity  ....Dreamperson #2
       Rebecca Street  ....Mom Freeman
       Sandy Martin  ....Nurse
       Rachel Winfree  ....English Teacher
       Sophia Abu Jamara  ....Biology Teacher
       Donna Pieroni  ....Cooking Teacher
       Rick Lindland  ....Auto Shop Stud
       Billy Butler  ....High School Stud #2
       布赖特·安德森 Brett Anderson  ....The Donnas Vocalist (as Donna A.)
       Torry Castellano  ....Donna C. - The Donnas
       Maya Ford  ....Donna F. - The Donnas
       Allison Robertson  ....Donna R. - The Donnas
       Jan Linder  ....Customer (uncredited)
       Bob Tennent  ....High School Stud #3 (uncredited)
       Lisa Tornell  ....High School Student (voice) (uncredited)
       

【简  介】 
 
    谁说聪明才智不等于美丽,她们自认是集智慧与性感于一身的呛辣妹妹!寇妮、茱莉、丽兹三位在学校的风云人物,她们因恶作剧害死了一位女孩,三个女孩开始紧张渐渐的漏出狐狸尾巴……

 

  General #1
    ID : 1 (0x1)
    Complete name : 00000.m2ts
    Format : BDAV
    Format/Info : Blu-ray Video
    File size : 17.8 GiB
    Duration : 1h 26mn
    Overall bit rate mode : Variable
    Overall bit rate : 29.4 Mbps
    Maximum Overall bit rate : 35.5 Mbps
  Video #4113
    ID : 4113 (0x1011)
    Menu ID : 1 (0x1)
    Format : AVC
    Format/Info : Advanced Video Codec
    Format profile : High@L4.1
    Format settings, CABAC : Yes
    Format settings, ReFrames : 2 frames
    Format settings, GOP : M=1, N=10
    Codec ID : 27
    Duration : 1h 26mn
    Bit rate mode : Variable
    Bit rate : 26.7 Mbps
    Width : 1 920 pixels
    Height : 1 080 pixels
    Display aspect ratio : 16:9
    Frame rate : 23.976 fps
    Color space : YUV
    Chroma subsampling : 4:2:0
    Bit depth : 8 bits
    Scan type : Progressive
    Bits/(Pixel*Frame) : 0.537
    Stream size : 16.2 GiB (91%)
  Audio #4352
    ID : 4352 (0x1100)
    Menu ID : 1 (0x1)
    Format : DTS
    Format/Info : Digital Theater Systems
    Muxing mode : Stream extension
    Codec ID : 134
    Duration : 1h 26mn
    Bit rate mode : Constant
    Bit rate : 1 510 Kbps
    Channel(s) : 6 channels
    Channel positions : Front: L C R, Side: L R, LFE
    Sampling rate : 48.0 KHz
    Bit depth : 24 bits
    Compression mode : Lossy
    Stream size : 933 MiB (5%)
    Language : English
  Text #4608
    ID : 4608 (0x1200)
    Menu ID : 1 (0x1)
    Format : PGS
    Codec ID : 144
    Delay relative to video : 500ms
    Language : Chinese

  评论这张
 
阅读(112)| 评论(0)
推荐 转载

历史上的今天

在LOFTER的更多文章

评论

<#--最新日志,群博日志--> <#--推荐日志--> <#--引用记录--> <#--博主推荐--> <#--随机阅读--> <#--首页推荐--> <#--历史上的今天--> <#--被推荐日志--> <#--上一篇,下一篇--> <#-- 热度 --> <#-- 网易新闻广告 --> <#--右边模块结构--> <#--评论模块结构--> <#--引用模块结构--> <#--博主发起的投票-->
 
 
 
 
 
 
 
 
 
 
 
 
 
 

页脚

网易公司版权所有 ©1997-2017