注册 登录  
 加关注
   显示下一条  |  关闭
温馨提示!由于新浪微博认证机制调整,您的新浪微博帐号绑定已过期,请重新绑定!立即重新绑定新浪微博》  |  关闭

逆风飞翔的鸟

追逐风中散落的默契~

 
 
 

日志

 
 
关于我

曾经迷惑于一份距离 曾经感动于一个传说 …… 在仆仆风中 我伸手 抓住你我的缘分 …… “傻傻”的你 能闻到风中 你我的默契吗?!

网易考拉推荐

【剧情】The.Cider.House.Rules.1999.总有骄阳  

2012-06-18 14:32:22|  分类: 剧情 |  标签: |举报 |字号 订阅

  下载LOFTER 我的照片书  |
【剧情】The.Cider.House.Rules.1999.总有骄阳 - 归鸿 - 逆风飞翔的鸟

 ◎译  名 总有骄阳/心尘往事/苹果酒屋法则
◎片  名 The Cider House Rules
◎年  代 1999
◎国  家 美国
◎类  别 剧情/爱情
◎语  言 英语
◎IMDB链接  http://www.imdb.com/title/tt0124315/
◎片  长 126 Mins 
◎导  演 莱塞·霍尔斯道姆 Lasse Hallstr?m
◎主  演 托比·马奎尔 Tobey Maguire ....Homer Wells
       查理兹·塞隆 Charlize Theron ....Candy Kendall
       戴尔里·林多 Delroy Lindo ....Arthur Rose
       保罗·路德 Paul Rudd ....Lt. Wally Worthington
       迈克尔·凯恩 Michael Caine ....Dr. Wilbur Larch
       简·亚历山大 Jane Alexander ....Nurse Edna
       Kathy Baker ....Nurse Angela
       Erykah Badu ....Rose Rose
       基南·卡尔金 Kieran Culkin ....Buster
       凯特·尼利甘 Kate Nelligan ....Olive Worthington
       Heavy D ....Peaches
       K. Todd Freeman ....Muddy
       帕兹·德拉维尔塔 Paz de la Huerta ....Mary Agnes
       J·K·西蒙斯 J.K. Simmons ....Ray Kendall
       伊万·帕克 Evan Parke ....Jack (as Evan Dexter Parke)
       Jimmy Flynn ....Vernon
       Lonnie Farmer ....Hero (as Lonnie R. Farmer)
       Erik Per Sullivan ....Fuzzy
       Spencer Diamond ....Curly
       Sean Andrew ....Copperfield
       John Albano ....Steerforth
       丝凯·麦柯·巴楚沙 Skye McCole Bartusiak ....Hazel (as Sky McCole-Bartusiak)
       Clare Daly ....Clara
       科林·欧文 Colin Irving ....Major Winslow
       Annie Corley ....Carla
       Patrick Donnelly ....Adopting Father
       Edie Schechter ....Adopting Mother
       Kasey Berry ....12yr. Old Girl
       Mary Bogue ....Big Dot
       Victoria Stankiewicz ....Debra
       Christine Stevens ....Florence
       Earle C. Batchelder ....Dr. Holtz
       Norma Fine ....Mrs. Goodhall
       约翰·欧文 John Irving ....Stationmaster
       Eric Bruno Borgman ....Flirting Soldier on Train (uncredited)
       凯文·查普曼 Kevin Chapman ....Adopting Dad (uncredited)
       John H. Tobin ....Man on Train (uncredited)


◎简  介 
 
    这是个关于一个年轻人经历的经典故事:离家出走—坠入情网—发现自我,本片根据约翰·欧文的最畅销小说改编而成,这也是他最好的一部小说。
 
    故事背景是美国40年代保守朴素的缅因州,一个在孤儿院长大的青年荷马,在老医生的关怀下成长。但他不安于现状,终于在一次机会中离开了孤儿院,并偶然与一丈夫远征打仗的女子产生情欲关系。
 
    一个失去父母的孤儿荷马在一家孤儿院里被一名医生拉奇抚养教育张长大,他们之间有着一种特殊的亲情。但是,拉奇教授了荷马关于医学方面的很多知识,却并没有教他关于是非善恶及生活的道理。现在,荷马成人了,他开始关心自己的未来,渴望外面的世界。当他走进这个大千世界时,他发现了很多新鲜而又让人兴奋的事情,尤其是当他第一次品尝爱情的滋味时,他才知道自己以前知道的东西实在太少。
 
    然而,当他的新生活开始后,他也不断发现面对的现在和自己的过去所产生出来的碰撞。他才逐渐感觉到自己的过去已经深深地影响了自己的未来……
 

◎一句话评论
 
《总有骄阳》远远超过了其他改编自欧文小说的电影。
 ——《洛杉矶时报》
 
查理兹·塞隆在片中的表演完全出人意料。
 ——《费城每日新闻》
 

◎幕后制作
 
  《总有骄阳》改编自美国作家约翰·欧文于1985年出版的同名畅销书,很多媒体将该书誉为欧文最成功的作品,然而好事多磨,为了将小说拍成电影,欧文经历了长达13年的艰辛苦旅。最先与欧文联手改编剧本的是导演菲力浦·博萨斯,当时小说刚刚问世不久,剧本在保罗·纽曼的客厅中逐渐成形,戴尔里·林多也参与其中。正当众人踌躇满志之时,博萨斯意外身染绝症,影片的拍摄计划被迫中止。欧文回忆说:“菲力浦因癌症病逝时年仅41岁,在漫长的合作期间,我们已然成为了亲近的朋友,他的英年早逝让我几近崩溃,在很长一段时间里,我认为《总有骄阳》已经无缘大银幕了。”
 
  值得庆幸的是,《总有骄阳》并不乏忠实拥趸,这其中就包括制作人理查德·N·格莱德斯坦,他希望能将小说拍成电影。他说:“书中人物所必须面对的抉择和人性深深吸引了我,他们生活的世界、家庭概念、如何与家人相处、爱情与友情的责任和重要、种族问题以及堕胎都是令人着迷的话题,而狄更斯式的的叙事方式也让我倾心不已。虽说故事发生在3、40年代,可书中人物面临的种种困境在当今仍然普遍存在,所以我对改编拍摄小说的想法执迷已久,哪怕电影只及小说的一半,那么其中的情感内涵也足以让观众受益匪浅。”格莱德斯坦前往佛蒙特州与欧文会面,一拍即合的二人立即着手物色导演,最终,他们锁定了曾执导过《狗脸的岁月》和《不一样的天空》的莱塞·霍尔斯道姆。非典型家庭、复杂、精彩而多变的初恋和性觉醒、忠诚与背叛和对古怪人物的细致描写都是霍尔斯道姆和欧文作品中的固有元素,此外,《狗脸的岁月》和小说《总有骄阳》都问世于1985年。霍尔斯道姆其实与本片渊源已久,欧文回忆说:“巧合的是,早在菲力浦·博萨斯在世时,莱塞·霍尔斯道姆就曾是我们眼中的最佳人选,菲力浦和我都很喜欢《狗脸的岁月》,怎奈他当时片约缠身,我们只好作罢,多年后,当听说莱塞同意执导本片时,我真的兴奋极了。”
 
  欧文的剧本彻底改变了紧凑的小说,他去掉了过多的人物和次要情节,缩短了时间跨度,并加入了新内容。格莱德斯坦说:“约翰在创作初期就认为无法将小说中的整个故事呈现在大银幕上,我们在根据小说故事改编电影,而并非将小说拍成电影。这不是一部电视连续剧,如果我们有8小时,拍摄整部小说肯定不在话下,可这是一部电影,所以我们必须有所选择。”
 

◎花    絮
 
·约翰·欧文曾想让他的儿子科林·欧文扮演片中沃利,可影片筹拍历时十多年,科林·欧文的年龄已经不再适合角色,最终,他出演了温斯洛少校的角色。
 
·迈克尔·温特伯顿曾是执导本片的人选,后来他因本片迟迟无法开拍而退出。

 

  General #1
    ID : 1 (0x1)
    Complete name : 00000.m2ts
    Format : BDAV
    Format/Info : Blu-ray Video
    File size : 21.1 GiB
    Duration : 2h 5mn
    Overall bit rate mode : Variable
    Overall bit rate : 24.1 Mbps
    Maximum Overall bit rate : 35.5 Mbps
  Video #4113
    ID : 4113 (0x1011)
    Menu ID : 1 (0x1)
    Format : AVC
    Format/Info : Advanced Video Codec
    Format profile : High@L4.1
    Format settings, CABAC : Yes
    Format settings, ReFrames : 4 frames
    Codec ID : 27
    Duration : 2h 5mn
    Bit rate mode : Variable
    Bit rate : 18.9 Mbps
    Maximum bit rate : 25.0 Mbps
    Width : 1 920 pixels
    Height : 1 080 pixels
    Display aspect ratio : 16:9
    Frame rate : 23.976 fps
    Standard : NTSC
    Color space : YUV
    Chroma subsampling : 4:2:0
    Bit depth : 8 bits
    Scan type : Progressive
    Bits/(Pixel*Frame) : 0.381
    Stream size : 16.6 GiB (79%)
    Color primaries : BT.709-5, BT.1361, IEC 61966-2-4, SMPTE RP177
    Transfer characteristics : BT.709-5, BT.1361
    Matrix coefficients : BT.709-5, BT.1361, IEC 61966-2-4 709, SMPTE RP177
  Audio #4352
    ID : 4352 (0x1100)
    Menu ID : 1 (0x1)
    Format : DTS
    Format/Info : Digital Theater Systems
    Format profile : MA
    Muxing mode : Stream extension
    Codec ID : 134
    Duration : 21s 653ms
    Bit rate : 3 967 Kbps
    Channel(s) : 6 channels
    Channel positions : Front: L C R, Side: L R, LFE
    Sampling rate : 48.0 KHz
    Bit depth : 24 bits
    Compression mode : Lossy
    Stream size : 10.2 MiB (0%)
    Language : English
  Audio #4353
    ID : 4353 (0x1101)
    Menu ID : 1 (0x1)
    Format : AC-3
    Format/Info : Audio Coding 3
    Mode extension : CM (complete main)
    Format settings, Endianness : Big
    Codec ID : 129
    Duration : 2h 4mn
    Bit rate mode : Constant
    Bit rate : 224 Kbps
    Channel(s) : 2 channels
    Channel positions : Front: L R
    Sampling rate : 48.0 KHz
    Bit depth : 16 bits
    Compression mode : Lossy
    Stream size : 200 MiB (1%)
    Language : Chinese
  Text #4608
    ID : 4608 (0x1200)
    Menu ID : 1 (0x1)
    Format : PGS
    Codec ID : 144
    Language : Chinese
  Text #4609
    ID : 4609 (0x1201)
    Menu ID : 1 (0x1)
    Format : PGS
    Codec ID : 144
    Language : English

  评论这张
 
阅读(166)| 评论(0)
推荐 转载

历史上的今天

在LOFTER的更多文章

评论

<#--最新日志,群博日志--> <#--推荐日志--> <#--引用记录--> <#--博主推荐--> <#--随机阅读--> <#--首页推荐--> <#--历史上的今天--> <#--被推荐日志--> <#--上一篇,下一篇--> <#-- 热度 --> <#-- 网易新闻广告 --> <#--右边模块结构--> <#--评论模块结构--> <#--引用模块结构--> <#--博主发起的投票-->
 
 
 
 
 
 
 
 
 
 
 
 
 
 

页脚

网易公司版权所有 ©1997-2017