注册 登录  
 加关注
   显示下一条  |  关闭
温馨提示!由于新浪微博认证机制调整,您的新浪微博帐号绑定已过期,请重新绑定!立即重新绑定新浪微博》  |  关闭

逆风飞翔的鸟

追逐风中散落的默契~

 
 
 

日志

 
 
关于我

曾经迷惑于一份距离 曾经感动于一个传说 …… 在仆仆风中 我伸手 抓住你我的缘分 …… “傻傻”的你 能闻到风中 你我的默契吗?!

网易考拉推荐

【剧情】That.Night.In.Varennes.1982.瓦伦之夜  

2012-06-18 14:28:54|  分类: 剧情 |  标签: |举报 |字号 订阅

  下载LOFTER 我的照片书  |
【剧情】That.Night.In.Varennes.1982.瓦伦之夜 - 归鸿 - 逆风飞翔的鸟

◎译  名 瓦伦之夜
◎片  名 That Night in Varennes
◎年  代 1982
◎国  家 法国 /意大利
◎类  别 剧情 /历史
◎语  言 法语 /意大利语
◎IMDB链接  http://www.imdb.com/title/tt0084423/
◎片  长 131 mins
◎导  演 伊托·斯柯拉 Ettore Scola
◎主  演 让-路易斯·巴劳特 Jean-Louis Barrault ....Nicolas Edmé Restif de la Bretonne
      马塞洛·马斯楚安尼 Marcello Mastroianni ....Casanova, Chevalier de Seingalt
      汉娜·许古拉 Hanna Schygulla ....Countess Sophie de la Borde
      哈威·凯特尔 Harvey Keitel ....Thomas Paine
      让-克劳德·布里亚利 Jean-Claude Brialy ....Monsieur Jacob
      Andréa Ferréol ....Mme Adéla?de Gagnon
      Michel Vitold ....De Florange
      劳拉·贝蒂 Laura Betti ....Virginia Capacelli
      Enzo Jannacci ....Le bateleur italien
      Pierre Malet ....Emile Delage, l'étudiant révolutionnaire
      丹尼尔·盖林 Daniel Gélin ....De Wendel
      休格·奎斯特 Hugues Quester ....Jean-Louis Romeuf
      Dora Doll ....Nanette Precy
      Caterina Boratto ....Mme Faustine
      Didi Perego ....Mme Sauce
      简-路易斯·特林提格南特 Jean-Louis Trintignant ....Monsieur Sauce
      米歇尔·皮寇利 Michel Piccoli ....King Louis XVI
      Eléonore Hirt ....Marie-Antoinette
      Evelyne Dress ....Agnès, fille de Restif
      Aline Mess ....Marie-Madeleine, la servante noire de Sophie
      Patrick Osmond ....Le commandant de la Garde Nationale
      Jacques Peyrac
      Claude Legros
      弗农·多布切夫 Vernon Dobtcheff ....Le juge saisie
      Ugo Fangareggi
      Yves Collignon ....Drouet
      Maurice Jacquemont

 
◎简  介

    1791年6月21日深夜,路易十六及其全家乘马车逃出巴黎的王宫,往边境跑去。车上有许多乘客,包括目睹过美国革命的汤姆,捍卫人民原则的佩因;似乎是在利用混乱的女歌唱家;赞扬专制的伯爵夫人;特别担心自己周围人命运的官员和车顶上坐着的雅各宾派大学生以及伯爵夫人可爱的女仆。国王未能到达边境,在—个极热闹的小城镇瓦伦,被当地居民包围了。此时此刻,国王藏身在杂货店老板的家里。拥挤的群众叫喊着,谁也看不到国王及王室成员。广场上的人群此起彼伏地唱着革命的赞歌。人民群众欢欣喜悦,因为革命者抓住了国王,将其带回首都。1793年1月,国王被斩首。

幕后制作

  本片集惊险片、警探片、西部片和古装喜剧片的样式于一体,引人入胜。片名意味着要诞生的那个世界。全片有种忧郁和敏感的基调,导演对由于旧制度崩溃而被推翻的人采取了宽容的态度。叙述镜头丰富,两个场景很有意境:—场戏是汉娜·许古拉俯首于国王的衣袖之上;另—场是路易十六和安东涅塔王后只能看到他们脚的戏。该片很有讽刺意味,有时出现细腻的感情描述,摄影师拍摄的景致美丽,让全片产生—种优雅文静的韵味。这个故事提醒我们,在动乱与反乱中,人们仍然继续在探寻正义和和平,人们对和平保有希望。本片曾参加1982年戛纳电影节竞赛。

 

  General #1
    ID : 1 (0x1)
    Complete name : 00000.m2ts
    Format : BDAV
    Format/Info : Blu-ray Video
    File size : 18.8 GiB
    Duration : 2h 31mn
    Overall bit rate mode : Variable
    Overall bit rate : 17.8 Mbps
    Maximum Overall bit rate : 35.5 Mbps
  Video #4113
    ID : 4113 (0x1011)
    Menu ID : 1 (0x1)
    Format : AVC
    Format/Info : Advanced Video Codec
    Format profile : High@L4.1
    Format settings, CABAC : Yes
    Format settings, ReFrames : 4 frames
    Format settings, GOP : M=3, N=18
    Codec ID : 27
    Duration : 2h 31mn
    Bit rate mode : Variable
    Bit rate : 15.5 Mbps
    Maximum bit rate : 20.0 Mbps
    Width : 1 920 pixels
    Height : 1 080 pixels
    Display aspect ratio : 16:9
    Frame rate : 24.000 fps
    Standard : NTSC
    Color space : YUV
    Chroma subsampling : 4:2:0
    Bit depth : 8 bits
    Scan type : Progressive
    Bits/(Pixel*Frame) : 0.312
    Stream size : 16.4 GiB (87%)
    Color primaries : BT.709-5, BT.1361, IEC 61966-2-4, SMPTE RP177
    Transfer characteristics : BT.709-5, BT.1361
    Matrix coefficients : BT.709-5, BT.1361, IEC 61966-2-4 709, SMPTE RP177
  Audio #4352
    ID : 4352 (0x1100)
    Menu ID : 1 (0x1)
    Format : DTS
    Format/Info : Digital Theater Systems
    Muxing mode : Stream extension
    Codec ID : 134
    Duration : 2h 31mn
    Bit rate mode : Constant
    Bit rate : 1 510 Kbps
    Channel(s) : 2 channels
    Channel positions : Front: L R
    Sampling rate : 48.0 KHz
    Bit depth : 16 bits
    Compression mode : Lossy
    Stream size : 1.59 GiB (8%)
    Language : French
  Text #4608
    ID : 4608 (0x1200)
    Menu ID : 1 (0x1)
    Format : PGS
    Codec ID : 144
    Language : Chinese
  Text #4609
    ID : 4609 (0x1201)
    Menu ID : 1 (0x1)
    Format : PGS
    Codec ID : 144
    Language : Chinese
  Text #4610
    ID : 4610 (0x1202)
    Menu ID : 1 (0x1)
    Format : PGS
    Codec ID : 144
    Duration : 2h 31mn
    Delay relative to video : 1s 125ms
    Language : French
  Text #4611
    ID : 4611 (0x1203)
    Menu ID : 1 (0x1)
    Format : PGS
    Codec ID : 144
    Language : English
  Text #4612
    ID : 4612 (0x1204)
    Menu ID : 1 (0x1)
    Format : PGS
    Codec ID : 144
    Language : French

  评论这张
 
阅读(126)| 评论(0)
推荐 转载

历史上的今天

在LOFTER的更多文章

评论

<#--最新日志,群博日志--> <#--推荐日志--> <#--引用记录--> <#--博主推荐--> <#--随机阅读--> <#--首页推荐--> <#--历史上的今天--> <#--被推荐日志--> <#--上一篇,下一篇--> <#-- 热度 --> <#-- 网易新闻广告 --> <#--右边模块结构--> <#--评论模块结构--> <#--引用模块结构--> <#--博主发起的投票-->
 
 
 
 
 
 
 
 
 
 
 
 
 
 

页脚

网易公司版权所有 ©1997-2017