注册 登录  
 加关注
   显示下一条  |  关闭
温馨提示!由于新浪微博认证机制调整,您的新浪微博帐号绑定已过期,请重新绑定!立即重新绑定新浪微博》  |  关闭

逆风飞翔的鸟

追逐风中散落的默契~

 
 
 

日志

 
 
关于我

曾经迷惑于一份距离 曾经感动于一个传说 …… 在仆仆风中 我伸手 抓住你我的缘分 …… “傻傻”的你 能闻到风中 你我的默契吗?!

网易考拉推荐

【剧情】Love.Story.1970.爱情故事  

2012-06-18 14:14:18|  分类: 剧情 |  标签: |举报 |字号 订阅

  下载LOFTER 我的照片书  |
【剧情】Love.Story.1970.爱情故事 - 归鸿 - 逆风飞翔的鸟

◎译  名 爱情故事
◎片  名 Love Story
◎年  代 1970
◎国  家 美国 
◎类  别 爱情/剧情
◎语  言 英语 
◎IMDB链接  http://www.imdb.com/title/tt0066011/
◎片  长 99 Mins
◎导  演 阿瑟·希勒 Arthur Hiller
◎主  演 艾丽·麦古奥 Ali MacGraw  ....Jennifer Cavalleri
       瑞安·奥尼尔 Ryan O'Neal  ....Oliver Barrett IV
       雷·米兰德 Ray Milland  ....Oliver Barrett III
       汤米·李·琼斯 Tommy Lee Jones  ....Hank Simpson (as Tom Lee Jones)
       约翰·马利 John Marley  ....Phil Cavalleri
       Russell Nype  ....Dean Thompson
       Katharine Balfour  ....Mrs. Barrett (as Katherine Balfour)
       John Merensky  ....Steve
       
 
◎简  介 
 
  影片讲述富家子弟奥列弗和一位普通面包师的女儿简真诚相爱。奥列弗不顾家庭的反对毅然结婚。婚后的生活是幸福的,两人在经济拮据情况下奥列弗自力更生的完成了自己的硕士学业。毕业后,奥列弗成了一名挂牌律师,经济上有了起色,两个年轻人的新生活刚刚开始,但他可爱的妻子简却身患绝症撒手人寰离他而去。影片结尾,他一个人孤独的来到两人曾经一起游玩的溜冰场,看着洁白的雪,奥列弗不仅想起过去那一段段甜蜜温馨的往事……
 
◎一句话评论
 
Love means never having to say you're sorry
 


  General #1
    ID : 1 (0x1)
    Complete name : 00000.m2ts
    Format : BDAV
    Format/Info : Blu-ray Video
    File size : 25.8 GiB
    Duration : 1h 40mn
    Overall bit rate mode : Variable
    Overall bit rate : 36.8 Mbps
    Maximum Overall bit rate : 35.5 Mbps
  Video #4113
    ID : 4113 (0x1011)
    Menu ID : 1 (0x1)
    Format : AVC
    Format/Info : Advanced Video Codec
    Format profile : High@L4.1
    Format settings, CABAC : Yes
    Format settings, ReFrames : 4 frames
    Codec ID : 27
    Duration : 1h 40mn
    Bit rate mode : Variable
    Bit rate : 33.8 Mbps
    Maximum bit rate : 38.0 Mbps
    Width : 1 920 pixels
    Height : 1 080 pixels
    Display aspect ratio : 16:9
    Frame rate : 23.976 fps
    Color space : YUV
    Chroma subsampling : 4:2:0
    Bit depth : 8 bits
    Scan type : Progressive
    Bits/(Pixel*Frame) : 0.680
    Stream size : 23.7 GiB (92%)
  Audio #4352
    ID : 4352 (0x1100)
    Menu ID : 1 (0x1)
    Format : DTS
    Format/Info : Digital Theater Systems
    Muxing mode : Stream extension
    Codec ID : 134
    Duration : 1h 40mn
    Bit rate mode : Constant
    Bit rate : 1 510 Kbps
    Channel(s) : 6 channels
    Channel positions : Front: L C R, Side: L R, LFE
    Sampling rate : 48.0 KHz
    Bit depth : 24 bits
    Compression mode : Lossy
    Stream size : 1.06 GiB (4%)
    Language : English
  Text #4608
    ID : 4608 (0x1200)
    Menu ID : 1 (0x1)
    Format : PGS
    Codec ID : 144
    Language : Chinese
  Text #4609
    ID : 4609 (0x1201)
    Menu ID : 1 (0x1)
    Format : PGS
    Codec ID : 144
    Language : Chinese
  Text #4610
    ID : 4610 (0x1202)
    Menu ID : 1 (0x1)
    Format : PGS
    Codec ID : 144
    Language : Chinese
  Text #4611
    ID : 4611 (0x1203)
    Menu ID : 1 (0x1)
    Format : PGS
    Codec ID : 144
    Language : English
  Text #4612
    ID : 4612 (0x1204)
    Menu ID : 1 (0x1)
    Format : PGS
    Codec ID : 144
    Language : English

  评论这张
 
阅读(136)| 评论(0)
推荐 转载

历史上的今天

在LOFTER的更多文章

评论

<#--最新日志,群博日志--> <#--推荐日志--> <#--引用记录--> <#--博主推荐--> <#--随机阅读--> <#--首页推荐--> <#--历史上的今天--> <#--被推荐日志--> <#--上一篇,下一篇--> <#-- 热度 --> <#-- 网易新闻广告 --> <#--右边模块结构--> <#--评论模块结构--> <#--引用模块结构--> <#--博主发起的投票-->
 
 
 
 
 
 
 
 
 
 
 
 
 
 

页脚

网易公司版权所有 ©1997-2017