注册 登录  
 加关注
   显示下一条  |  关闭
温馨提示!由于新浪微博认证机制调整,您的新浪微博帐号绑定已过期,请重新绑定!立即重新绑定新浪微博》  |  关闭

逆风飞翔的鸟

追逐风中散落的默契~

 
 
 

日志

 
 
关于我

曾经迷惑于一份距离 曾经感动于一个传说 …… 在仆仆风中 我伸手 抓住你我的缘分 …… “傻傻”的你 能闻到风中 你我的默契吗?!

网易考拉推荐
GACHA精选

【剧情】Kind.Hearts.and.Coronets.1949.仁心与冠冕  

2012-06-18 14:12:31|  分类: 剧情 |  标签: |举报 |字号 订阅

  下载LOFTER 我的照片书  |
【剧情】Kind.Hearts.and.Coronets.1949.仁心与冠冕 - 归鸿 - 逆风飞翔的鸟

◎译  名 仁心与冠冕/好心与王冠
◎片  名 Kind Hearts And Coronets
◎年  代 1949
◎国  家 英国
◎类  别 喜剧/罪案
◎语  言 英语
◎IMDB链接  http://www.imdb.com/title/tt0041546
◎片  长 1:46:36
◎导  演 罗伯特·哈默 Robert Hamer
◎主  演 Dennis Price ...  Louis
       Valerie Hobson ...  Edith
       Joan Greenwood ...  Sibella
       亚历克·吉尼斯 Alec Guinness ...  The Duke /  The Admiral / Young Ascoyne / Young Henry / Lady Agatha
       Audrey Fildes ...  Mama
       Miles Malleson ...  The Hangman
       Clive Morton ...  The Prison Governor
       John Penrose ...  Lionel
       Cecil Ramage ...  Crown Counsel
       休·格里夫斯 Hugh Griffith ...  Lord High Steward
       John Salew ...  Mr. Perkins
       Eric Messiter ...  Burgoyne
       Lyn Evans ...  The Farmer
       Barbara Leake ...  The Schoolmistress
       Peggy Ann Clifford ...  Maud
 
 
◎简  介 
 
  路易将被处以绞刑,他异常冷静令监狱长感到吃惊。在他被处以绞刑的前夜,路易·达司孔尼·马兹尼——夏尔冯特家族第十代公爵心情轻松的写下了他的自传:他的母亲是英国夏尔冯特公爵七世的女儿,和意大利歌剧演员私奔,他们很穷……后来父亲猝死,母亲省吃俭用供他上最好的学校,直到他长大成人。两年后,母亲因车祸去世,希望葬在家族的墓地,但公爵一次又一次的拒绝路易的请求,路易发誓要报复夏尔冯特家族对母亲所做的一切……
 
  英国著名喜剧片经典,亡命公路电影的经典之作,根据真人真事改编。英国《卫报》向读者推荐50部最佳家庭电影之一。亚历克·吉尼斯一人演8个角色……《奇爱博士》的彼得.塞勒斯不过一人4角……

 

  General #1
    ID : 1 (0x1)
    Complete name : 00000.m2ts
    Format : BDAV
    Format/Info : Blu-ray Video
    File size : 19.6 GiB
    Duration : 1h 46mn
    Overall bit rate mode : Variable
    Overall bit rate : 26.4 Mbps
    Maximum Overall bit rate : 35.5 Mbps
  Video #4113
    ID : 4113 (0x1011)
    Menu ID : 1 (0x1)
    Format : AVC
    Format/Info : Advanced Video Codec
    Format profile : High@L4.1
    Format settings, CABAC : Yes
    Format settings, ReFrames : 4 frames
    Format settings, GOP : M=3, N=24
    Codec ID : 27
    Duration : 1h 46mn
    Bit rate mode : Variable
    Bit rate : 25.0 Mbps
    Maximum bit rate : 35.0 Mbps
    Width : 1 920 pixels
    Height : 1 080 pixels
    Display aspect ratio : 16:9
    Frame rate : 23.976 fps
    Standard : NTSC
    Color space : YUV
    Chroma subsampling : 4:2:0
    Bit depth : 8 bits
    Scan type : Progressive
    Bits/(Pixel*Frame) : 0.503
    Stream size : 18.5 GiB (95%)
    Color primaries : BT.709-5, BT.1361, IEC 61966-2-4, SMPTE RP177
    Transfer characteristics : BT.709-5, BT.1361
    Matrix coefficients : BT.709-5, BT.1361, IEC 61966-2-4 709, SMPTE RP177
  Audio #4352
    ID : 4352 (0x1100)
    Menu ID : 1 (0x1)
    Format : AC-3
    Format/Info : Audio Coding 3
    Codec ID : 129
    Duration : 1s 472ms
    Bit rate : 384 Kbps
    Channel(s) : 2 channels
    Sampling rate : 48.0 KHz
    Compression mode : Lossy
    Stream size : 69.0 KiB (0%)
    Language : English
  Text #4608
    ID : 4608 (0x1200)
    Menu ID : 1 (0x1)
    Format : PGS
    Codec ID : 144
    Language : Chinese
  Text #4609
    ID : 4609 (0x1201)
    Menu ID : 1 (0x1)
    Format : PGS
    Codec ID : 144
    Language : English

  评论这张
 
阅读(162)| 评论(0)
推荐 转载

历史上的今天

在LOFTER的更多文章

评论

<#--最新日志,群博日志--> <#--推荐日志--> <#--引用记录--> <#--博主推荐--> <#--随机阅读--> <#--首页推荐--> <#--历史上的今天--> <#--被推荐日志--> <#--上一篇,下一篇--> <#-- 热度 --> <#-- 网易新闻广告 --> <#--右边模块结构--> <#--评论模块结构--> <#--引用模块结构--> <#--博主发起的投票-->
 
 
 
 
 
 
 
 
 
 
 
 
 
 

页脚

网易公司版权所有 ©1997-2017