注册 登录  
 加关注
   显示下一条  |  关闭
温馨提示!由于新浪微博认证机制调整,您的新浪微博帐号绑定已过期,请重新绑定!立即重新绑定新浪微博》  |  关闭

逆风飞翔的鸟

追逐风中散落的默契~

 
 
 

日志

 
 
关于我

曾经迷惑于一份距离 曾经感动于一个传说 …… 在仆仆风中 我伸手 抓住你我的缘分 …… “傻傻”的你 能闻到风中 你我的默契吗?!

网易考拉推荐

【剧情】Bringing.Down.The.House.2003.爱到房倒屋塌  

2012-06-18 13:47:13|  分类: 剧情 |  标签: |举报 |字号 订阅

  下载LOFTER 我的照片书  |
【剧情】Bringing.Down.The.House.2003.爱到房倒屋塌 - 归鸿 - 逆风飞翔的鸟

◎译  名 爱到房倒屋塌/我的野蛮网友
◎片  名 Bringing Down the House
◎年  代 2003
◎国  家 美国
◎类  别 喜剧
◎语  言 英语
◎IMDB链接  http://www.imdb.com/title/tt0305669/
◎片  长 01:45:21
◎导  演 亚当·山克曼 Adam Shankman
◎主  演 史蒂夫·马丁 Steve Martin .... Peter Sanderson
       奎恩·拉提法 Queen Latifah .... Charlene Morton
       尤金·列维 Eugene Levy .... Howie Rottman
       琼·普莱怀特 Joan Plowright .... Mrs. Arness
       基恩·斯马特 Jean Smart .... Kate Sanderson
       凯布利·布朗 Kimberly J. Brown .... Sarah Sanderson
       安格斯·琼斯 Angus T. Jones .... Georgey Sanderson
       米茜·派勒 Missi Pyle .... Ashley
       麦克尔·罗森巴尔 Michael Rosenbaum .... Todd Gendler
       贝蒂·怀特 Betty White .... Mrs. Kline
       斯蒂夫·哈里斯 Steve Harris .... Widow
       Jim Haynie .... Ed Tobias
       Aengus James .... Mike
       Jernard Burks .... Widow s Bodyguard
       Bronzell Miller .... Widow s Bodyguard
       Matt Lutz .... Aaron
       Randy Oglesby .... FBI Agent
       Jesse Corti .... Italian FBI Agent
       Rick Smalls Strickland .... Doorman
       Victor Webster .... Glen
 

◎简  介
 
  彼德·森德逊是一位格守道德观念、处事严谨的律师,对工作非常认真,可以说是个工作狂,但因为做事为人太过正直古板,弄得自己的精神和生活都常常处于紧张的状态,手头更是往往非常拮据,勉强过着中产阶级的生活。但彼德·森德逊十分顾家,也一直很爱自己的妻子凯特,对于他来说,能够拥有稳定的工作和波澜不惊的家庭生活就是最幸福的事情了。可是,最终他的妻子还是离开了他。彼德一直想不通,他到底做错了什么使妻子要离他而去。与此同时,执著的彼德·森德逊还在继续寻找着他追求的人生的真谛。
 
  徘徊于痛苦和无奈之中的彼德·森德逊,继续过着自己清贫的单身工作狂生活,直到有一天,他在网上结识了“女王”——一个头脑敏捷、思维火爆、多才多智、魅力无比的女律师,与她在网上聊天成了彼德·森德逊生活中无法或缺的一部分。很快,彼德·森德逊堕入了爱河。
 
  这天,彼德·森德逊精心做好了一切准备,迎接他的网络情人的到来。但是,当他打开家门和她面对面时,眼前的那个又黑又胖的女人让彼德·森德逊惊呆了。在短暂的接触之后,彼德·森德逊很快发现,她完全没有了网聊时的那般文雅,不但没有修养,更不是什么“常青藤联盟大学”的毕业生,当然更不是一个女律师。
 
  事实上,这位名女子叫莎琳·莫顿,是在一个在逃的女犯人,她声称自己是清白的,并希望彼德·森德逊能帮助自己恢复名誉。
 
  而此时的彼德·森德逊早已是处于崩溃的边缘,他不想跟这个大嗓门、令人讨厌的女人有任何关系,更不想帮她任何忙。可问题是,死心塌地地跟着彼德·森德逊的莎琳却无论如何也不肯离开,她打定主意要缠着彼德·森德逊不放,直到他帮自己洗清了罪名。
 
  莎琳的出现彻底将彼德·森德逊舒适平静的生活闹了个底朝天,不仅将他为让前妻回心转意所做的一切努力化为乌有,还使他错过了拥有10亿家产的富婆阿妮斯夫人的追求。
 
  然而,在许多超乎想象的事发生后,彼德·森德逊和莎琳这看起来格格不入、不可能的一对,不知不觉中却似乎已经成了彼此生活里的一部分,直到他们最后令人无法意料地爱得房倒屋塌……
 
  精彩视点:
 
  本片导演是曾执导过浪漫爱情剧《婚礼操办者》的亚当·山克曼。有“白头笑星”之称的斯蒂夫·马丁在片中饰演刻板、循规蹈矩的中产阶级男子。以在剧团中表演丑角入行的斯蒂夫·马丁近年来不仅在喜剧片的表演上精益求精,更凭借一张机敏且充满幽默感的巧嘴成为热门电视节目“周六夜现场”的常客,也曾多次受邀主持奥斯卡电影奖与格莱美音乐奖颁奖典礼。2000年更迎来他事业的新高峰,由于风格另类而没有一部作品正式获得过奥斯卡承认的他,终于获得美国电影学院的奥斯卡终身成就奖(喜剧)。
 
  在片中与斯蒂夫·马丁演对手戏的奎恩·拉提法是90年代最重量级的著名黑人饶舌歌手之一,但在看过这部影片之后,你会发现她的演技与她的音乐感染力相比,并不逊色。其实早在2000年,她就因在歌舞片《芝加哥》中饰演监狱女主管而声名大噪,并且获得了当年奥斯卡的最佳女配角提名。

 

  General #1
    ID : 1 (0x1)
    Complete name : 00000.m2ts
    Format : BDAV
    Format/Info : Blu-ray Video
    File size : 21.8 GiB
    Duration : 1h 45mn
    Overall bit rate mode : Variable
    Overall bit rate : 29.6 Mbps
    Maximum Overall bit rate : 35.5 Mbps
  Video #4113
    ID : 4113 (0x1011)
    Menu ID : 1 (0x1)
    Format : AVC
    Format/Info : Advanced Video Codec
    Format profile : High@L4.1
    Format settings, CABAC : Yes
    Format settings, ReFrames : 4 frames
    Codec ID : 27
    Duration : 1h 45mn
    Bit rate mode : Variable
    Bit rate : 24.0 Mbps
    Maximum bit rate : 35.0 Mbps
    Width : 1 920 pixels
    Height : 1 080 pixels
    Display aspect ratio : 16:9
    Frame rate : 23.976 fps
    Standard : NTSC
    Color space : YUV
    Chroma subsampling : 4:2:0
    Bit depth : 8 bits
    Scan type : Progressive
    Bits/(Pixel*Frame) : 0.483
    Stream size : 17.7 GiB (81%)
    Color primaries : BT.709-5, BT.1361, IEC 61966-2-4, SMPTE RP177
    Transfer characteristics : BT.709-5, BT.1361
    Matrix coefficients : BT.709-5, BT.1361, IEC 61966-2-4 709, SMPTE RP177
  Audio #4352
    ID : 4352 (0x1100)
    Menu ID : 1 (0x1)
    Format : DTS
    Format/Info : Digital Theater Systems
    Format profile : MA
    Codec ID : 134
    Duration : 256ms
    Bit rate : 4 426 Kbps
    Channel(s) : 6 channels
    Channel positions : Front: L C R, Side: L R, LFE
    Sampling rate : 48.0 KHz
    Bit depth : 24 bits
    Compression mode : Lossy
    Stream size : 138 KiB (0%)
    Language : English
  Text #4608
    ID : 4608 (0x1200)
    Menu ID : 1 (0x1)
    Format : PGS
    Codec ID : 144
    Language : Chinese
  Text #4609
    ID : 4609 (0x1201)
    Menu ID : 1 (0x1)
    Format : PGS
    Codec ID : 144
    Language : English

  评论这张
 
阅读(130)| 评论(0)
推荐 转载

历史上的今天

在LOFTER的更多文章

评论

<#--最新日志,群博日志--> <#--推荐日志--> <#--引用记录--> <#--博主推荐--> <#--随机阅读--> <#--首页推荐--> <#--历史上的今天--> <#--被推荐日志--> <#--上一篇,下一篇--> <#-- 热度 --> <#-- 网易新闻广告 --> <#--右边模块结构--> <#--评论模块结构--> <#--引用模块结构--> <#--博主发起的投票-->
 
 
 
 
 
 
 
 
 
 
 
 
 
 

页脚

网易公司版权所有 ©1997-2017