注册 登录  
 加关注
   显示下一条  |  关闭
温馨提示!由于新浪微博认证机制调整,您的新浪微博帐号绑定已过期,请重新绑定!立即重新绑定新浪微博》  |  关闭

逆风飞翔的鸟

追逐风中散落的默契~

 
 
 

日志

 
 
关于我

曾经迷惑于一份距离 曾经感动于一个传说 …… 在仆仆风中 我伸手 抓住你我的缘分 …… “傻傻”的你 能闻到风中 你我的默契吗?!

网易考拉推荐

【剧情】Wanderlust.2012.漫游  

2012-06-18 13:27:20|  分类: 剧情 |  标签: |举报 |字号 订阅

  下载LOFTER 我的照片书  |
【剧情】Wanderlust.2012.漫游 - 归鸿 - 逆风飞翔的鸟

◎译  名 漫游/随心所欲
◎片  名 Wanderlust
◎年  代 2012
◎国  家 美国
◎类  别 喜剧/剧情/爱情
◎IMDB链接  http://www.imdb.com/title/tt1655460/
◎语  言 英语
◎字  幕 中文
◎片  长 98 mins 7 seconds
◎导  演 大卫·韦恩 David Wain
◎主  演 保罗·路德 Paul Rudd  ....George
            詹妮弗·安妮斯顿 Jennifer Aniston  ....Linda
            贾斯汀·塞洛克斯 Justin Theroux  ....Seth
            阿伦·阿尔达 Alan Alda  ....Carvin
            玛琳·阿克曼 Malin Akerman  ....Eva
            肯·马里诺 Ken Marino  ....Rick
            Joe Lo Truglio  ....Wayne
            凯瑟琳·哈恩 Kathryn Hahn  ....Karen
            凯瑞·肯妮 Kerri Kenney  ....Kathy (as Kerri Kenney-Silver)
            劳伦·艾波罗丝 Lauren Ambrose  ....Almond
            Michaela Watkins  ....Marissa
            Jordan Peele  ....Rodney
            Linda Lavin  ....Shari
            杰西卡·圣克莱尔 Jessica St. Clair  ....Deena Schuster
            Todd Barry  ....Sherm
            Martin Thompson  ....Dale
            Ian Patrick  ....Grisham
            John D'Leo  ....Tanner
            大卫·韦恩 David Wain  ....Himself
            Michael Showalter  ....Himself
            迈克尔·伊恩·布莱克 Michael Ian Black  ....Himself
            Zandy Hartig  ....Marcy
            Keegan Michael Key  ....Marcy?s Flunkie
            Mather Zickel  ....Jim Stansel
            Juan Piedrahita  ....Paco
            Peter Salett  ....Manfreddie
            Patricia French  ....Beverly
            Nina Hellman  ....Protester
            Richard Allan Jones  ....Jerry Beaver (as Richard Jones)
            Juana Samayoa  ....Stephanie Davis
            David Cardenas  ....Ronny Shames
            Sharon Lubin  ....Danielle Melster
            Vester Grayson  ....Janie Brody
            Ronald McFarlin  ....Billy Marcus
            Roger Parham-Brown  ....Glen Stover
            Jim Moffatt  ....Tony Piloski
            Sung-Suk Garber  ....Janice Woo
            Craig Wedren  ....The Elysium Band
            Amy Miles  ....The Elysium Band
            Charles Gansa  ....The Elysium Band
            Roberto Zincone  ....The Elysium Band
            Fran Capitanelli  ....The Elysium Band
 

◎影片介绍
 
    乔治和琳达生活在大都市纽约,繁重的工作和极端的压力让他们渐渐失去了自己的生活,而工作则在悄无声息中成为了他们生命的唯一元素。突然有一天,乔治被解雇了,无奈之下,这两口子只有搬出自己住了很久的家,准备换个地方重新开始。
 
  可是,要离开纽约,他们要去哪里呢?在佐治亚州,他们还有点亲戚。于是他们变决定去“投奔家属”。一路上,他们碰到了形形色色的怪人。还误闯入了一个裸体主义者居住的社区。
 
  到达目的地后,他们却发现自己和当地人格格不入。于是,他们便再一次踏上了漫游的路程。在一次次的漫游中,乔治和琳达渐渐找回了往昔的感觉,而丢掉的生活也因为丢掉的工作而慢慢回归。
 

◎一句话评价
 
我不知道保罗-路德和导演大卫-韦恩是如何共享经验,共同创作出了这部雄心勃勃却疯疯癫癫,伶俐滑稽的作品。但不论怎样,这两人都是一对极富创造力的“贱人”
 
典型的韦恩式幽默,只不过这次不但越过了底线,还一泻千里
 
总体而言,这是一部出色地喜剧作品,虽然糟糕到了它所能达到的极限,但依然是一部出色地喜剧
 
大卫-韦恩那狂暴、色情且破破烂烂的塑造手法,对保罗-路德的即兴表演天赋以及安妮斯顿天马行空的不着调来说帮助不大,但好在他还是做到了将多种元素的完美融合
 
在讽刺题材作品中本片已算不上新奇,但绝大多数的笑料还是粗鄙的够可以
 
保罗-路德和珍妮佛-安妮斯顿都表现的非常惬意
 
通过各种错乱的生活方式,轮流交替地展现出情感的伤害与生活的魅力,这部电影用一些不成形的笑料,混乱地鼓吹避世理想主义
 
《漫游》是一部令人惬意的R级喜剧,即便这种感觉从影片中途就逐步消失
 

◎幕后制作
 
  在电影中,虽然有很多搞笑的桥段,但是这些桥段都是经过精心设计的,因为几乎每一个情节,都会使两个主角做出一个决定,或者是给他们造成一些改变。这些好玩的事情,是他们在纽约从来没有见到的,也是闻所未闻的。应该说,这里的风土人情--其实就是那个裸体爱好者的社区给了他们极大的触动,然后他们决定在这里停留。在这短暂的时间里,他们的生活和观念经历了巨大的变化。这其实就是一种心灵的洗涤和变化,这让他们明白了,之前在纽约的生活,他们失去了很多东西。于是,他们就想把这些给补回来,所以就开始了到处漫游的生活。我很喜欢这个创意和故事,因为漫游本身就是一种带有浪漫情调的事情。加上两个主演很熟悉的表演,影片很有感染力。”
 

◎花    絮
 
·本片由贾德·阿帕图监制、大卫·韦恩(《模范贱兄弟》)执导。   
 
·《漫游》是詹妮弗·安妮斯顿与保罗·路德第二次合作,他俩首度搭伙乃是1998年那部古怪的“直女+Gay男”的爱情片《欲擒故纵》。

 

  General #1
    ID : 1 (0x1)
    Complete name : 00000.m2ts
    Format : BDAV
    Format/Info : Blu-ray Video
    File size : 22.4 GiB
    Duration : 1h 38mn
    Overall bit rate mode : Variable
    Overall bit rate : 32.6 Mbps
    Maximum Overall bit rate : 35.5 Mbps
  Video #4113
    ID : 4113 (0x1011)
    Menu ID : 1 (0x1)
    Format : AVC
    Format/Info : Advanced Video Codec
    Format profile : High@L4.1
    Format settings, CABAC : Yes
    Format settings, ReFrames : 4 frames
    Codec ID : 27
    Duration : 1h 38mn
    Bit rate mode : Variable
    Bit rate : 28.3 Mbps
    Maximum bit rate : 35.0 Mbps
    Width : 1 920 pixels
    Height : 1 080 pixels
    Display aspect ratio : 16:9
    Frame rate : 23.976 fps
    Color space : YUV
    Chroma subsampling : 4:2:0
    Bit depth : 8 bits
    Scan type : Progressive
    Bits/(Pixel*Frame) : 0.569
    Stream size : 19.4 GiB (87%)
  Audio #4352-253-113
    ID : 4352 (0x1100)-253 (0xFD)-113 (0x71)
    Menu ID : 1 (0x1)
    Format : DTS
    Format/Info : Digital Theater Systems
    Muxing mode : Stream extension
    Codec ID : 134
    Duration : 1h 37mn
    Bit rate mode : Constant
    Bit rate : 1 510 Kbps
    Channel(s) : 6 channels
    Channel positions : Front: L C R, Side: L R, LFE
    Sampling rate : 48.0 KHz
    Bit depth : 24 bits
    Compression mode : Lossy
    Stream size : 1.03 GiB (5%)
    Language : English
  Audio #4352-212
    ID : 4352 (0x1100)-212 (0xD4)
    Menu ID : 1 (0x1)
    Format : DTS
    Format/Info : Digital Theater Systems
    Duration : 1h 38mn
    Bit rate mode : Constant
    Bit rate : 1 510 Kbps
    Channel(s) : 6 channels
    Channel positions : Front: L C R, Side: L R, LFE
    Sampling rate : 48.0 KHz
    Bit depth : 24 bits
    Compression mode : Lossy
    Stream size : 1.03 GiB (5%)
  Text #4608
    ID : 4608 (0x1200)
    Menu ID : 1 (0x1)
    Format : PGS
    Codec ID : 144
    Language : Chinese
  Text #4609
    ID : 4609 (0x1201)
    Menu ID : 1 (0x1)
    Format : PGS
    Codec ID : 144
    Language : Chinese
  Text #4610
    ID : 4610 (0x1202)
    Menu ID : 1 (0x1)
    Format : PGS
    Codec ID : 144
    Language : English
  Text #4611
    ID : 4611 (0x1203)
    Menu ID : 1 (0x1)
    Format : PGS
    Codec ID : 144
    Language : Spanish
  Text #4612
    ID : 4612 (0x1204)
    Menu ID : 1 (0x1)
    Format : PGS
    Codec ID : 144
    Language : French
  Text #4613
    ID : 4613 (0x1205)
    Menu ID : 1 (0x1)
    Format : PGS
    Codec ID : 144
    Language : Spanish

  评论这张
 
阅读(121)| 评论(0)
推荐 转载

历史上的今天

在LOFTER的更多文章

评论

<#--最新日志,群博日志--> <#--推荐日志--> <#--引用记录--> <#--博主推荐--> <#--随机阅读--> <#--首页推荐--> <#--历史上的今天--> <#--被推荐日志--> <#--上一篇,下一篇--> <#-- 热度 --> <#-- 网易新闻广告 --> <#--右边模块结构--> <#--评论模块结构--> <#--引用模块结构--> <#--博主发起的投票-->
 
 
 
 
 
 
 
 
 
 
 
 
 
 

页脚

网易公司版权所有 ©1997-2017