注册 登录  
 加关注
   显示下一条  |  关闭
温馨提示!由于新浪微博认证机制调整,您的新浪微博帐号绑定已过期,请重新绑定!立即重新绑定新浪微博》  |  关闭

逆风飞翔的鸟

追逐风中散落的默契~

 
 
 

日志

 
 
关于我

曾经迷惑于一份距离 曾经感动于一个传说 …… 在仆仆风中 我伸手 抓住你我的缘分 …… “傻傻”的你 能闻到风中 你我的默契吗?!

网易考拉推荐

【剧情】Albert.Nobbs.2011.雌雄莫辨  

2012-06-18 12:51:19|  分类: 剧情 |  标签: |举报 |字号 订阅

  下载LOFTER 我的照片书  |
【剧情】Albert.Nobbs.2011.雌雄莫辨 - 归鸿 - 逆风飞翔的鸟

◎译  名 雌雄莫辨/变装男侍(台)/阿尔伯特·诺伯斯/奇异人生
◎片  名 Albert Nobbs
◎年  代 2011
◎国  家 英国/爱尔兰
◎类  别 剧情
◎语  言 英语
◎IMDB链接  http://www.imdb.com/title/tt1602098
◎片  长 113 Mins
◎导  演 罗德里格·加西亚 Rodrigo García
◎主  演 格伦·克洛斯 Glenn Close  ....Albert Nobbs
       米娅·华希科沃斯卡 Mia Wasikowska  ....Helen
       珍妮·麦克蒂尔 Janet McTeer  ....Hubert Page
       安东尼娅·坎贝尔-休斯 Antonia Campbell-Hughes  ....Emmy
       宝林·科林斯 Pauline Collins  ....Mrs. Baker
       玛利亚·多耶·肯尼迪 Maria Doyle Kennedy  ....Mary
       马克·威廉姆斯 Mark Williams  ....Sean
       James Greene  ....Patrick
       Serena Brabazon  ....Mrs. Moore
       迈克尔·麦克埃尔哈顿 Michael McElhatton  ....Mr. Moore
       Dolores Mullally  ....Milady
       Bonnie McCormack  ....Miss Shaw
       菲丽达·劳 Phyllida Law  ....Mrs. Cavendish
       布莱丹·格里森 Brendan Gleeson  ....Dr. Holloran
       肯尼斯·克拉德 Kenneth Collard  ....M. Pigot
       Judy Donovan  ....Mme. Pigot
       乔纳森·莱斯·梅耶斯 Jonathan Rhys Meyers  ....Viscount Yarrell
       Phoebe Waller-Bridge  ....Viscountess Yarrell
       Emerald Fennell  ....Mrs. Smythe-Willard
       约翰·莱特 John Light  ....Mr. Smythe-Willard
       Daniel Costello  ....Mr. Sweeney
       Angeline Ball  ....Mrs. Gilligan
       Philip O‘Sullivan  ....Mr. Gilligan
       亚伦·约翰逊 Aaron Johnson  ....Joe
       布兰达·弗里克 Brenda Fricker  ....Polly
       Katie Long  ....Young Kitchen Maid
       Katie O‘Brien  ....Older Kitchen Maid
       Mark Doherty  ....Porter
       Rhys Burke  ....George Moore
       Lauren Kinsella  ....Milly Moore
       Katie Ann McDonough  ....Laundry Maid
       Kathleen Warner  ....Laundry Maid
       Cate MacGabhan  ....Laundry Maid
       Bronagh Gallagher  ....Cathleen
       Antoinette Healy  ....Woman on Landau
       Annie Starke  ....Chocolate Shop Waitress
       Cathy White  ....Nanny
       Malcolm Blacow  ....Health Official
       Lily Melcher  ....Country Girl
       Lucie Melcher  ....Country Girl
       Raul Riva  ....Baby
       Juno  ....Polly‘s Dog
 
       
◎简  介 
 
  《阿尔伯特·诺伯斯》讲述了19世纪的爱尔兰,一名女子为了活命不得不把自己化装成男人的故事。
 
  阿尔伯特·诺伯斯生活在19世纪的爱尔兰,在都柏林最豪华的酒店工作。这个酒店专门给上层人士提供寻欢作乐的场所。而阿尔伯特·诺伯斯就生活和工作在这里。这是一个生性害羞的仆役长,虽然生活和工作都很忙碌,但是阿尔伯特·诺伯斯还是乐在其中。更重要的是,阿尔伯特为自己保留着一个秘密——“他”其实是一个女人。
 
  在19世纪的爱尔兰,一个女人要在外工作养家糊口是一件非常困难的事情。为了让自己远离贫困和低贱的生活,阿尔伯特·诺伯斯整整女扮男装了20年。起码到现在为止,还没有人能识破她变装和易容的诡计。可是随着酒店里入住了一位英俊、帅气而又年轻的画家之后,一切都变了。
 
  动了春心的阿尔伯特·诺伯斯正在蠢蠢欲动,她想把自己带了20年的男性的面具摘掉,而与此同时,她又想保护酒店里的年轻的女佣海伦。而海伦这个时候已经陷入了对酒店的一个年轻的零杂工的爱慕之中……
 
◎一句话评论
 
格伦·克洛斯在影片中送上的精妙绝伦、无与伦比的表演。而这部影片 ,亦被罗德里格·加西亚拍摄得优雅而又稳重。
 ——卫报
 
这部影片应该能算得上是格伦·克洛斯演艺生涯中的丰碑了,但是影片本身却乏善可称,拖拖踏踏,几乎毁掉了格伦·克洛斯的表演。
 ——综艺
 
除了格伦·克洛斯的表演,珍妮·麦克蒂尔的发挥也是可圈可点的。应该说,是演员们的演技撑起了这部讲述19世纪都柏林故事的影片。
 ——好莱坞报道者
 
没有什么能比格伦·克洛斯的演技更耀眼的了。
 ——Reel Film Reviews
 
影片最大的问题就是太虚假,即使在化妆的帮助下,穿上了男人衣服的格伦·克洛斯也一点都不像一个男人,难道电影里的人都看不出来么?
 ——AV Club
 
◎幕后制作
 
  多年的夙愿
 
  对于格伦·克洛斯来说,在银幕上扮演这个叫做阿尔伯特·诺伯斯的女扮男装的爱尔兰人,是多年的夙愿。1982年,她第一次被叫去为一出叫做《阿尔伯特·诺伯斯的简单生活》(The Singular Life of Albert Nobbs)的舞台剧试镜,随后,这个角色就扎根在了格伦·克洛斯的脑子里,她一直想把这个故事改编上银幕。其实,不仅仅是主演,格伦·克洛斯还是这部影片的编剧。在她的剧本中,阿尔伯特·诺伯斯被塑造成了一个隐忍、害羞、淡泊而又充满激情的女性。
 
  格伦·克洛斯说:“我感觉这部电影有那么些超现实,因为从1982年到现在,过去了那么长的时间,这么多人都在为这部电影工作,这令我感到非比寻常。每天早晨,我来到片场,看到那么多忙忙碌碌的工作人员,我都会觉得恍若隔世一般。在我个人看来,拍摄这部电影是有风险的,因为我究竟要如何去塑造阿尔伯特·诺伯斯呢?我需要在脸上展示多少表情和内容呢?因为在她的脸上,往往是没有表情的。其实,诺伯斯是一个幻想家,她常常幻想着自己有朝一日能赚到足够的钱,开一家小店铺,或者是居住在海边。这是一个很奇特的故事,因为电影会让人们在欣赏的同时去幻想小说的内容。所以,我觉得这是一个非常出色色的电影,而且它很值得我们为之工作、付出努力。”
 
  阿尔伯特·诺伯斯这个人物,简单来说很像是“灵魂出窍”的人,她并不是她所表现出来的人,她一直都是带着面具生活的。克洛斯说:“她的灵魂和她的身体是相分离的。当她穿上男人的衣服,她会觉得自在;但是当穿上女人衣服的时候,她就会无所适从。我要表现的就是这个一点,而这也是一个难点。所以乔治·摩尔称她为一个中性人。”
 
  想象和现实
 
  影片的导演是哥伦比亚人罗德里格·加西亚,他是大名鼎鼎的加西亚·马尔克斯的儿子。因为有老爹这棵大树的庇护,加西亚从小就能在自己加的客厅里接触到很多大导演,比如布努埃尔等等。在自己家庭的影响下,加西亚很早就走上了文艺创作的道路,而且在他的作品中,女性形象一直占据着重要的比重。加西亚说:“在这部电影里,我着重刻画的是女性的形象。我常常会幻想自己就是那个女主角,然后会设计很多镜头和故事之类。令我高兴的是,很多人都觉得我的想法挺不错。我把自己生活中的很多熟知的女性形象放到了影片的角色身上。不过,我这并不是表示说,我需要这个角色怎么样怎么样,而是用了一种幻想和真实的方式来创作这个人物。”
 
  谈及和格伦·克洛斯以及米娅·华希科沃斯卡这样的老演员和新演员的合作,加西亚说:“和格伦·克洛斯一起工作的时候,你会觉得演戏是一件非常简答的事情,格伦·克洛斯总是能很轻松地就完成所有的事情。克洛斯是一个很有趣的人,她时时刻刻地都在关注人们的生活和近况,然后会聊出自己的想法。所以,那些和他有过接触的人都曾经遭受过她的‘审问和质询’。年轻的米娅是一个很有才华的演员,她工作很努力,也很认真。我觉得她已经有了成为一线明星的实力了。我看过她演出的《简·爱》,那是一部很棒的电影,简·爱是一个非常难以扮演的角色。在这部电影里,米娅的表演非常稳重。我觉得,她这两年,真正从一个女孩子变成了一个女演员。”
 
◎花絮
 
·影片改编自乔治·摩尔(George Moore)的短篇小说《阿尔伯特·诺伯斯的奇异生活》(The Singular Life of Albert Nobbs)。
 
·阿曼达·塞弗里德和奥兰多·布鲁姆原本都是本片的演员,但是由于档期冲突,最终出现在影片中的是米娅·华希科沃斯卡和亚伦·约翰逊。
 
·影片在2000年前后曾经进入过制作周期,当时确定的导演是伊斯特凡·萨博,不过这个项目最终未能成行。

 

  General #1
    ID : 1 (0x1)
    Complete name : 00000.m2ts
    Format : BDAV
    Format/Info : Blu-ray Video
    File size : 22.5 GiB
    Duration : 1h 53mn
    Overall bit rate mode : Variable
    Overall bit rate : 28.3 Mbps
    Maximum Overall bit rate : 35.5 Mbps
  Video #4113
    ID : 4113 (0x1011)
    Menu ID : 1 (0x1)
    Format : AVC
    Format/Info : Advanced Video Codec
    Format profile : High@L4.1
    Format settings, CABAC : Yes
    Format settings, ReFrames : 4 frames
    Codec ID : 27
    Duration : 1h 53mn
    Bit rate mode : Variable
    Bit rate : 25.7 Mbps
    Maximum bit rate : 35.0 Mbps
    Width : 1 920 pixels
    Height : 1 080 pixels
    Display aspect ratio : 16:9
    Frame rate : 23.976 fps
    Standard : NTSC
    Color space : YUV
    Chroma subsampling : 4:2:0
    Bit depth : 8 bits
    Scan type : Progressive
    Bits/(Pixel*Frame) : 0.516
    Stream size : 20.3 GiB (91%)
    Color primaries : BT.709-5, BT.1361, IEC 61966-2-4, SMPTE RP177
    Transfer characteristics : BT.709-5, BT.1361
    Matrix coefficients : BT.709-5, BT.1361, IEC 61966-2-4 709, SMPTE RP177
  Audio #4352
    ID : 4352 (0x1100)
    Menu ID : 1 (0x1)
    Format : DTS
    Format/Info : Digital Theater Systems
    Muxing mode : Stream extension
    Codec ID : 134
    Duration : 1h 52mn
    Bit rate mode : Constant
    Bit rate : 1 510 Kbps
    Channel(s) : 6 channels
    Channel positions : Front: L C R, Side: L R, LFE
    Sampling rate : 48.0 KHz
    Bit depth : 16 bits
    Compression mode : Lossy
    Stream size : 1.19 GiB (5%)
    Language : English
  Text #4608
    ID : 4608 (0x1200)
    Menu ID : 1 (0x1)
    Format : PGS
    Codec ID : 144
    Language : Chinese
  Text #4609
    ID : 4609 (0x1201)
    Menu ID : 1 (0x1)
    Format : PGS
    Codec ID : 144
    Language : Chinese
  Text #4610
    ID : 4610 (0x1202)
    Menu ID : 1 (0x1)
    Format : PGS
    Codec ID : 144
    Language : Chinese
  Text #4611
    ID : 4611 (0x1203)
    Menu ID : 1 (0x1)
    Format : PGS
    Codec ID : 144
    Language : Chinese
  Text #4612
    ID : 4612 (0x1204)
    Menu ID : 1 (0x1)
    Format : PGS
    Codec ID : 144
    Language : English
  Text #4613
    ID : 4613 (0x1205)
    Menu ID : 1 (0x1)
    Format : PGS
    Codec ID : 144
    Language : Spanish
  Text #4614
    ID : 4614 (0x1206)
    Menu ID : 1 (0x1)
    Format : PGS
    Codec ID : 144
    Language : English

  评论这张
 
阅读(117)| 评论(0)
推荐 转载

历史上的今天

在LOFTER的更多文章

评论

<#--最新日志,群博日志--> <#--推荐日志--> <#--引用记录--> <#--博主推荐--> <#--随机阅读--> <#--首页推荐--> <#--历史上的今天--> <#--被推荐日志--> <#--上一篇,下一篇--> <#-- 热度 --> <#-- 网易新闻广告 --> <#--右边模块结构--> <#--评论模块结构--> <#--引用模块结构--> <#--博主发起的投票-->
 
 
 
 
 
 
 
 
 
 
 
 
 
 

页脚

网易公司版权所有 ©1997-2017