注册 登录  
 加关注
   显示下一条  |  关闭
温馨提示!由于新浪微博认证机制调整,您的新浪微博帐号绑定已过期,请重新绑定!立即重新绑定新浪微博》  |  关闭

逆风飞翔的鸟

追逐风中散落的默契~

 
 
 

日志

 
 
关于我

曾经迷惑于一份距离 曾经感动于一个传说 …… 在仆仆风中 我伸手 抓住你我的缘分 …… “傻傻”的你 能闻到风中 你我的默契吗?!

网易考拉推荐

【剧情】The.Dinner.Game.1998.晚餐游戏  

2012-06-12 17:09:39|  分类: 剧情 |  标签: |举报 |字号 订阅

  下载LOFTER 我的照片书  |
【剧情】The.Dinner.Game.1998.晚餐游戏 - 归鸿 - 逆风飞翔的鸟

◎片名:Le.Diner
◎译名:晚餐游戏/黐餐游戏/客人变成猪/黍离餐游戏/Le d?ner de cons
◎年代:1998
◎国家:法国
◎类型:喜剧
◎IMDb  链接:http://www.imdb.com/title/tt0119038/
◎片长:80分钟
◎对白:法语
◎字幕:中文
◎导演:Francis Veber
◎演员:Thierry Lhermitte ... Pierre Brochant
     Jacques Villeret ... Fran?ois Pignon
     Francis Huster ... Juste Leblanc
     Daniel Prévost ... Lucien Cheval
     Alexandra Vandernoot ... Christine Brochant
     Catherine Frot ... Marlène Sasseur
     Beno?t Bellal ... Host 1
     Jacques Bleu ... Host 3
     Philippe Brigaud ... Tanner (boomerang thrower)
     Michel Caccia ... Guest 1
     Laurent Gendron ... Guest 2
     Mykha?l Georges-Schar ... Host 2
     Edgar Givry ... Cordier
     Pierre-Arnaud Juin ... Boissonade
     Daniel Martin ... Messignac


◎剧情:

  阿包和一班自命聪明的朋友约星期三晚与行"屏蔽词语晚宴"!规则很简单;各人只须携一名"屏蔽词语之最"共赴晚餐,便能获得丰富奖品。这夜,阿包遇见了法素平庸,平庸是一名愚蠢的会计师,亦是专门坏事的麻烦友.相约共赴餐宴前,阿包突然受伤不能外出.在平庸的"悉心照料"下,可笑的事情接踵发生。


◎幕后制作

    本片原身是法兰西斯?威柏(原版《假凤虚凰》的编剧株)写于1993年的舞台剧,大受欢迎,拍成电影也卖座。威柏刻意将所有情景集中于一内景,单靠一波三折的喜剧情节来制造疯狂笑料。影片笑料充足,一定让你乐不可支,内容具有一定的颠覆性。“皮侬”这个说话唠叨、爱管闲事、好心办坏事却心地善良的傻瓜形象是导演多部电影的主要人物,在《下岗风波》和《你闭嘴》等喜剧名作中均可见到。主演的矮个子维尔莱几乎是该形象的化身,多年前在《罗伯特与罗伯特》里就塑造了一个类似的憨厚笨蛋形象。

 

  General #1
    ID : 1 (0x1)
    Complete name : 00000.m2ts
    Format : BDAV
    Format/Info : Blu-ray Video
    File size : 17.5 GiB
    Duration : 1h 20mn
    Overall bit rate mode : Variable
    Overall bit rate : 31.3 Mbps
    Maximum Overall bit rate : 35.5 Mbps
  Video #4113
    ID : 4113 (0x1011)
    Menu ID : 1 (0x1)
    Format : AVC
    Format/Info : Advanced Video Codec
    Format profile : High@L4.1
    Format settings, CABAC : Yes
    Format settings, ReFrames : 4 frames
    Format settings, GOP : M=3, N=18
    Codec ID : 27
    Duration : 1h 20mn
    Bit rate mode : Variable
    Bit rate : 28.6 Mbps
    Maximum bit rate : 35.0 Mbps
    Width : 1 920 pixels
    Height : 1 080 pixels
    Display aspect ratio : 16:9
    Frame rate : 24.000 fps
    Standard : PAL
    Color space : YUV
    Chroma subsampling : 4:2:0
    Bit depth : 8 bits
    Scan type : Progressive
    Bits/(Pixel*Frame) : 0.574
    Stream size : 16.0 GiB (91%)
    Color primaries : BT.709-5, BT.1361, IEC 61966-2-4, SMPTE RP177
    Transfer characteristics : BT.709-5, BT.1361
    Matrix coefficients : BT.709-5, BT.1361, IEC 61966-2-4 709, SMPTE RP177
  Audio #4352
    ID : 4352 (0x1100)
    Menu ID : 1 (0x1)
    Format : DTS
    Format/Info : Digital Theater Systems
    Muxing mode : Stream extension
    Codec ID : 134
    Duration : 1h 19mn
    Bit rate mode : Constant
    Bit rate : 1 510 Kbps
    Channel(s) : 6 channels
    Channel positions : Front: L C R, Side: L R, LFE
    Sampling rate : 48.0 KHz
    Bit depth : 24 bits
    Compression mode : Lossy
    Stream size : 860 MiB (5%)
    Language : French
  Text #4608
    ID : 4608 (0x1200)
    Menu ID : 1 (0x1)
    Format : PGS
    Codec ID : 144
    Language : Chinese
  Text #4609
    ID : 4609 (0x1201)
    Menu ID : 1 (0x1)
    Format : PGS
    Codec ID : 144
    Language : Chinese
  Text #4610
    ID : 4610 (0x1202)
    Menu ID : 1 (0x1)
    Format : PGS
    Codec ID : 144
    Language : English
  Text #4611
    ID : 4611 (0x1203)
    Menu ID : 1 (0x1)
    Format : PGS
    Codec ID : 144
    Language : French
  Text #4612
    ID : 4612 (0x1204)
    Menu ID : 1 (0x1)
    Format : PGS
    Codec ID : 144
    Language : French

  评论这张
 
阅读(100)| 评论(0)
推荐 转载

历史上的今天

在LOFTER的更多文章

评论

<#--最新日志,群博日志--> <#--推荐日志--> <#--引用记录--> <#--博主推荐--> <#--随机阅读--> <#--首页推荐--> <#--历史上的今天--> <#--被推荐日志--> <#--上一篇,下一篇--> <#-- 热度 --> <#-- 网易新闻广告 --> <#--右边模块结构--> <#--评论模块结构--> <#--引用模块结构--> <#--博主发起的投票-->
 
 
 
 
 
 
 
 
 
 
 
 
 
 

页脚

网易公司版权所有 ©1997-2017