注册 登录  
 加关注
   显示下一条  |  关闭
温馨提示!由于新浪微博认证机制调整,您的新浪微博帐号绑定已过期,请重新绑定!立即重新绑定新浪微博》  |  关闭

逆风飞翔的鸟

追逐风中散落的默契~

 
 
 

日志

 
 
关于我

曾经迷惑于一份距离 曾经感动于一个传说 …… 在仆仆风中 我伸手 抓住你我的缘分 …… “傻傻”的你 能闻到风中 你我的默契吗?!

网易考拉推荐

【剧情】Five.Easy.Pieces.1970.五支歌  

2012-06-12 17:17:31|  分类: 剧情 |  标签: |举报 |字号 订阅

  下载LOFTER 我的照片书  |
【剧情】Five.Easy.Pieces.1970.五支歌 - 归鸿 - 逆风飞翔的鸟

中文名: 五只歌
英文名: Five Easy Pieces
发行日期: 1970年
地区: 美国
语言: 英语
导演: 罗伯·拉菲尔森(Bob Rafelson)
演员: 杰克·尼科尔森(Jack Nicholson)
      卡伦·布莱克(Karen Black)
      Billy Green Bush(Billy Green Bush)
      Fannie Flagg(Fannie Flagg)
      洛伊丝·史密斯(Lois Smith)


剧情简介:

  劳勃为追求自我,遇着放荡不羁的漂流生活,由于接获父亲中风的消息,遂驱车赶回老家华盛顿州,途中和志趣相投的潘摩结为好友,并发生了一连串趣事。返家后,劳勃和家人共叙陈年旧事,在探望完病中的老父后,又踏上了他那永无休止的旅途...

    70年代是一个真正属于尼克尔逊的时代。这段时间里他塑造了一个又一个不同类型的角色,并在每一部影片中尝试着不同的表演风格,而结果都无一例外地证明了他的成功。在1972年的影片《马文花园的帝王》("King of Marvin Gardens&quot:wink:中,他一改《五部轻松的戏剧》中披着长发的形象,变成了一个瘦瘦的中年知识分子,1971年因《五部轻松的戏剧》获第43届奥斯卡奖最佳男演员提名。

 

  General #1
    ID : 1 (0x1)
    Complete name : 00000.m2ts
    Format : BDAV
    Format/Info : Blu-ray Video
    File size : 27.1 GiB
    Duration : 1h 38mn
    Overall bit rate mode : Variable
    Overall bit rate : 39.4 Mbps
    Maximum Overall bit rate : 35.5 Mbps
  Video #4113
    ID : 4113 (0x1011)
    Menu ID : 1 (0x1)
    Format : AVC
    Format/Info : Advanced Video Codec
    Format profile : High@L4.1
    Format settings, CABAC : Yes
    Format settings, ReFrames : 4 frames
    Codec ID : 27
    Duration : 1h 38mn
    Bit rate mode : Variable
    Bit rate : 36.4 Mbps
    Maximum bit rate : 37.0 Mbps
    Width : 1 920 pixels
    Height : 1 080 pixels
    Display aspect ratio : 16:9
    Frame rate : 23.976 fps
    Color space : YUV
    Chroma subsampling : 4:2:0
    Bit depth : 8 bits
    Scan type : Progressive
    Bits/(Pixel*Frame) : 0.733
    Stream size : 25.0 GiB (93%)
    Color primaries : BT.709-5, BT.1361, IEC 61966-2-4, SMPTE RP177
    Transfer characteristics : BT.709-5, BT.1361
    Matrix coefficients : BT.709-5, BT.1361, IEC 61966-2-4 709, SMPTE RP177
  Audio #4352
    ID : 4352 (0x1100)
    Menu ID : 1 (0x1)
    Format : PCM
    Format settings, Endianness : Big
    Format settings, Sign : Signed
    Muxing mode : Blu-ray
    Codec ID : 128
    Duration : 1h 38mn
    Bit rate mode : Constant
    Bit rate : 1 152 Kbps
    Encoded bit rate : 2 304 Kbps
    Channel(s) : 1 channel
    Channel positions : Front: C
    Sampling rate : 48.0 KHz
    Bit depth : 24 bits
    Stream size : 810 MiB (3%)
    Language : English
  Audio #4353
    ID : 4353 (0x1101)
    Menu ID : 1 (0x1)
    Format : AC-3
    Format/Info : Audio Coding 3
    Codec ID : 129
    Duration : 1h 38mn
    Bit rate : 192 Kbps
    Channel(s) : 1 channel
    Sampling rate : 48.0 KHz
    Compression mode : Lossy
    Stream size : 135 MiB (0%)
    Language : English
  Text #4608
    ID : 4608 (0x1200)
    Menu ID : 1 (0x1)
    Format : PGS
    Codec ID : 144
    Language : Chinese
  Text #4609
    ID : 4609 (0x1201)
    Menu ID : 1 (0x1)
    Format : PGS
    Codec ID : 144
    Language : Chinese
  Text #4610
    ID : 4610 (0x1202)
    Menu ID : 1 (0x1)
    Format : PGS
    Codec ID : 144
    Language : English

  评论这张
 
阅读(162)| 评论(0)
推荐 转载

历史上的今天

在LOFTER的更多文章

评论

<#--最新日志,群博日志--> <#--推荐日志--> <#--引用记录--> <#--博主推荐--> <#--随机阅读--> <#--首页推荐--> <#--历史上的今天--> <#--被推荐日志--> <#--上一篇,下一篇--> <#-- 热度 --> <#-- 网易新闻广告 --> <#--右边模块结构--> <#--评论模块结构--> <#--引用模块结构--> <#--博主发起的投票-->
 
 
 
 
 
 
 
 
 
 
 
 
 
 

页脚

网易公司版权所有 ©1997-2017