注册 登录  
 加关注
   显示下一条  |  关闭
温馨提示!由于新浪微博认证机制调整,您的新浪微博帐号绑定已过期,请重新绑定!立即重新绑定新浪微博》  |  关闭

逆风飞翔的鸟

追逐风中散落的默契~

 
 
 

日志

 
 
关于我

曾经迷惑于一份距离 曾经感动于一个传说 …… 在仆仆风中 我伸手 抓住你我的缘分 …… “傻傻”的你 能闻到风中 你我的默契吗?!

网易考拉推荐

【剧情】Paranoid.Park.2007.迷幻公园  

2012-06-12 16:42:42|  分类: 剧情 |  标签: |举报 |字号 订阅

  下载LOFTER 我的照片书  |
【剧情】Paranoid.Park.2007.迷幻公园 - 归鸿 - 逆风飞翔的鸟

◎译  名 迷幻公园
◎片  名 Paranoid Park
◎年  代 2007年
◎国  家 法国/美国
◎类  别 罪案/剧情/神秘  
◎IMDB链接 http://imdb.com/title/tt0842929
◎对白语言 英语
◎片  长 84 Mins
◎导  演 格斯·范·桑特 Gus Van Sant
◎主  演 盖博·纳文斯 Gabe Nevins .....Alex
      丹尼尔·刘 Daniel Liu .....Detective Richard Lu
      泰勒·玛姆森 Taylor Momsen .....Jennifer
      Jake Miller .....Jared
      Lauren McKinney .....Macy
      Winfield Jackson .....Christian
      Joe Schweitzer .....Paul
      Grace Carter .....Alex's Mom
      Scott Patrick Green .....Scratch
      John Michael Burrowes .....Security Guard


◎简  介 

  迷幻公园位于波特兰市中心治安混乱的地带,是远近闻名的滑板运动中心。某日,16岁的滑板少年亚历克斯(Alex)在公园附近与一名保安发生冲突并失手将保安杀死。恐惧、困惑和负罪感使亚历克斯陷入了巨大的混乱,面临警察追查的亚历克斯最终选择了想尽办法逃避罪责,而他的人生也从此改变。

一句话评论:

在格斯·范·桑特的这部新参赛作品中,他开始用一种更开放的方式去探寻他所要探寻的东西。通过对亚历克斯这一特殊个案的敏锐刻画,《迷幻公园》称得上是格斯·范·桑特最好的作品之一。

——Hollywood Reporter

这部影片的视觉效果实在美得惊人——有一个镜头,亚历克斯冲着一盏蓝色照夜灯练习滑板,周围是大片的绿色灌木丛。那一个瞬间我们必须承认:画面往往比直接叙事更具说服力。

——《纽约时报》

《迷幻公园》是一部既表现适度又极具控制力的影片,导演以顶级水准的拍摄方式和放松随意的处理手法共同打造出了这部杰作。

——IFC News

这应该算是一个延伸:《迷幻公园》所要表达的内容远远超过了关于在这样一个暴力时代的社会责任问题——伊拉克战争让拒绝和冷漠代替了责任。

——indieWIRE

幕后制作:

  依旧是戛纳,依旧是少年暴力题材,曾经凭借《大象》一举拿下最佳影片和最佳导演大奖的美国导演格斯·范·桑特此次带来的新作《迷幻公园》依旧获得了戛纳的青睐,最终将评委会特别奖的殊荣收入囊中。

  在2005年重现科特·柯本之死的《最后的日子》之后,整个2006年,格斯·范·桑特只在集锦片《巴黎,我爱你》中执导了一段5分钟的短片。偶然间,去年初范·桑特读到了布莱克·尼尔森这部小说的出版样本:“这本讲述波特兰本地故事的小说吸引了我。”于是,范·桑特与合作多年的法国制片公司MK2购得了影片的改编版权。《迷幻公园》改编自布莱克·尼尔森即将于9月出版的小说,故事讲述的是波特兰一名爱好滑板的中学生亚历克斯误杀了一名保安人员,警察随后对案件展开调查,这个孩子于是开始想方设法逃避罪责。“影片类似于一部‘中学版《罪与罚》’。”范?桑特在接受采访时表示,“其实,如今的中学校园跟《罪与罚》中描述的社会没什么两样,因此这两者的组合可以说是完美的。”

  曾为王家卫御用摄影师的杜可风为本片掌镜,杜氏一改其惯用的 “晃动”风格,在《迷幻公园》中大量使用长镜头和静止镜头。杜可风用一种松散的拍摄手法和8毫米、35毫米胶片交替使用的方式,将高中生和滑板少年们的情绪、感觉刻画得非常精细,也让《迷幻公园》的视觉效果广受好评。

  在之前的《大象》和《最后的日子》中,范·桑特就开始大量起用非专业演员。此次拍摄新片,范·桑特再次通过MySpace招募演员,而招募令也写得相当有趣:“任何14-18岁间的孩子,即使你不拥有以下条件:擅长轮滑,成绩优等、朋克少年、拉拉队员,舞台剧经验,爱好音乐、爱好美术、学生会成员、运动员、某奖项优胜者、班长、摄影师、乐队成员、小头目、小跟班、自闭者、学校的小丑、外国人……你也可以报名,欢迎你来试试,也许你的人生会因此有趣一些。”事实证明范·桑特此举十分高明,这些非专业演员们一如他们的同龄人们在《大象》中的表现一样出色,剧本与真实生活的重迭也使得影片有了更强烈的张力。

  与《大象》有针对性的关注校园枪击问题不同,《迷幻公园》更像是一幅描绘快速成长起来的年轻一代的全景图。范·桑特将拍摄地点选在了自己的故乡波特兰,而迷幻公园也确实是当地远近有名的“滑板胜地”。影片男主角亚历克斯家庭破裂,在发生了意外的杀人事件之后,亚历克斯感受大巨大的压力而又无人倾诉。最终亚历克斯接受了他唯一可以说话的对象——好友 Jared的建议,将发生的一切用笔记录下来。他说:“我不是一个会写作的人,但是我要把事实原原本本的写下来。” 而写出这一切,或许是他稍微获得解脱的唯一方式。

  在影片的配乐方面,《迷幻公园》采用了从费里尼作品到来自当地一家电台的被范·桑特称为“混凝土音乐”的各种风格,与影片所传达的矛盾、纠结气息可谓相得益彰。

花絮:

·本片根据布莱克·尼尔森即将出版的小说改编而成,而这位作家此次也与影片一同出现在戛纳电影节。

·继凭借《大象》一篇拿下戛纳最佳影片和最佳导演奖之后,《迷幻公园》导演格斯·范·桑特在第60届戛纳电影节上又获得了评委会特别奖的荣誉。

·本片几乎所有演员都为非职业演员,早在2006年7月,格斯·范·桑特便通过MySpace募集本片演员。

·本片在今年戛纳电影节展映时因突然发生断片故障导致现场记者喝倒彩甚至退场。

 

  General #1
    ID : 1 (0x1)
    Complete name : 00000.m2ts
    Format : BDAV
    Format/Info : Blu-ray Video
    File size : 16.6 GiB
    Duration : 1h 24mn
    Overall bit rate mode : Variable
    Overall bit rate : 28.2 Mbps
    Maximum Overall bit rate : 35.5 Mbps
  Video #4113
    ID : 4113 (0x1011)
    Menu ID : 1 (0x1)
    Format : MPEG Video
    Format version : Version 2
    Format profile : Main@High
    Format settings, BVOP : Yes
    Format settings, Matrix : Default
    Format settings, GOP : M=3, N=12
    Codec ID : 2
    Duration : 1h 24mn
    Bit rate mode : Variable
    Bit rate : 25.5 Mbps
    Maximum bit rate : 37.0 Mbps
    Width : 1 920 pixels
    Height : 1 080 pixels
    Display aspect ratio : 16:9
    Frame rate : 23.976 fps
    Color space : YUV
    Chroma subsampling : 4:2:0
    Bit depth : 8 bits
    Scan type : Progressive
    Compression mode : Lossy
    Bits/(Pixel*Frame) : 0.513
    Stream size : 15.1 GiB (91%)
  Audio #4352
    ID : 4352 (0x1100)
    Menu ID : 1 (0x1)
    Format : DTS
    Format/Info : Digital Theater Systems
    Muxing mode : Stream extension
    Codec ID : 134
    Duration : 1h 24mn
    Bit rate mode : Constant
    Bit rate : 1 510 Kbps
    Channel(s) : 6 channels
    Channel positions : Front: L C R, Side: L R, LFE
    Sampling rate : 48.0 KHz
    Bit depth : 16 bits
    Compression mode : Lossy
    Stream size : 910 MiB (5%)
    Language : English
  Text #4608
    ID : 4608 (0x1200)
    Menu ID : 1 (0x1)
    Format : PGS
    Codec ID : 144
    Language : Chinese

  评论这张
 
阅读(121)| 评论(0)
推荐 转载

历史上的今天

在LOFTER的更多文章

评论

<#--最新日志,群博日志--> <#--推荐日志--> <#--引用记录--> <#--博主推荐--> <#--随机阅读--> <#--首页推荐--> <#--历史上的今天--> <#--被推荐日志--> <#--上一篇,下一篇--> <#-- 热度 --> <#-- 网易新闻广告 --> <#--右边模块结构--> <#--评论模块结构--> <#--引用模块结构--> <#--博主发起的投票-->
 
 
 
 
 
 
 
 
 
 
 
 
 
 

页脚

网易公司版权所有 ©1997-2017