注册 登录  
 加关注
   显示下一条  |  关闭
温馨提示!由于新浪微博认证机制调整,您的新浪微博帐号绑定已过期,请重新绑定!立即重新绑定新浪微博》  |  关闭

逆风飞翔的鸟

追逐风中散落的默契~

 
 
 

日志

 
 
关于我

曾经迷惑于一份距离 曾经感动于一个传说 …… 在仆仆风中 我伸手 抓住你我的缘分 …… “傻傻”的你 能闻到风中 你我的默契吗?!

网易考拉推荐

【剧情】Four.Christmases.2008.四个圣诞节  

2012-06-11 20:56:46|  分类: 剧情 |  标签: |举报 |字号 订阅

  下载LOFTER 我的照片书  |
【剧情】Four.Christmases.2008.四个圣诞节 - 归鸿 - 逆风飞翔的鸟

◎译  名 四个圣诞节
◎片  名 Four Christmases
◎年  代 2009
◎国  家 美国/德国
◎类  别 喜剧/剧情/爱情
◎语  言 英语
◎字  幕 中文
◎IMDB链接  http://www.imdb.com/title/tt0369436
◎片  长 88 mins
◎导  演 西斯·戈登Seth Gordon 
◎主  演 文斯·沃恩Vince Vaughn
      瑞茜·威瑟斯彭Reese Witherspoon
      罗伯特·杜瓦尔Robert Duvall
      乔恩·法夫罗Jon Favreau
      茜茜·斯派塞克Sissy Spacek


◎简  介 

    圣诞节原本是和一家人在最寒冷的冬季里开开心心团聚,感受亲情温暖的好日子,可对于已经结婚的布拉德(文斯·沃恩饰)和凯特(瑞茜·威瑟斯彭饰)这对小夫妻来说,今年的圣诞节,却是让他们能忙得透不过气来的日子。

  说来话长,两个人的父母在分别在他们结婚前后各自离婚,虽然说布拉德和凯特都尊重父母的选择,不过毕竟他们也为年纪一把的父母单身后如何居住而倍感操心。像凯特的妈妈(玛丽·斯汀伯根饰)身子骨就不好,而布拉德和凯特劝她搬来和自己一起住,凯特的妈妈却是个犟脾气,坚决要自己一个人过清净日子。这可连累了布莱德和凯特,时不时的要打个电话,回家看看,嘘寒问暖,深怕凯特的妈妈出啥毛病;而凯特的爸爸(强·沃特饰)也没闲着,爱旅游的他虽然上了年纪,一样不服输,经常出去旅游一圈不见人影,布拉德和凯特根本找不到他,等担心得不行了,凯特的爸爸又没事一样站到他们跟前。

  而到了今年,布拉德和凯特更是忙得焦头烂额:离婚后的父母们,都各自找到了自己的另一半。本来这对于两个小夫妻而言倒是好事一桩,至少省心,不再为父母操心,但是问题更严峻了,各自的父母都给自己发了邀请函,告诉他们无论如何都要陪自己过这第一个新家庭的圣诞节。分身乏术的两人疲于奔命的在四个家庭之间来来去去,而发生的糗事也接连不断……

 

  General #1
    ID : 1 (0x1)
    Complete name : 00000.m2ts
    Format : BDAV
    Format/Info : Blu-ray Video
    File size : 14.2 GiB
    Duration : 1h 28mn
    Overall bit rate mode : Variable
    Overall bit rate : 22.9 Mbps
    Maximum Overall bit rate : 35.5 Mbps
  Video #4113
    ID : 4113 (0x1011)
    Menu ID : 1 (0x1)
    Format : VC-1
    Format profile : Advanced@L3
    Codec ID : 234
    Duration : 1h 28mn
    Bit rate : 21.3 Mbps
    Width : 1 920 pixels
    Height : 1 080 pixels
    Display aspect ratio : 16:9
    Frame rate : 23.976 fps
    Chroma subsampling : 4:2:0
    Bit depth : 8 bits
    Scan type : Progressive
    Compression mode : Lossy
    Bits/(Pixel*Frame) : 0.429
    Stream size : 13.2 GiB (93%)
  Audio #4352
    ID : 4352 (0x1100)
    Menu ID : 1 (0x1)
    Format : TrueHD
    Muxing mode : Stream extension
    Codec ID : 131
    Duration : 8s 114ms
    Bit rate mode : Variable
    Bit rate : 640 Kbps
    Maximum bit rate : 2 634 Kbps
    Channel(s) : 6 channels
    Channel positions : Front: L C R, Side: L R, LFE
    Sampling rate : 48.0 KHz
    Compression mode : Lossless
    Stream size : 634 KiB (0%)
    Language : English
  Text #4608
    ID : 4608 (0x1200)
    Menu ID : 1 (0x1)
    Format : PGS
    Codec ID : 144
    Language : Chinese
  Text #4609
    ID : 4609 (0x1201)
    Menu ID : 1 (0x1)
    Format : PGS
    Codec ID : 144
    Language : Chinese
  Text #4610
    ID : 4610 (0x1202)
    Menu ID : 1 (0x1)
    Format : PGS
    Codec ID : 144
    Language : Russian
  Text #4611
    ID : 4611 (0x1203)
    Menu ID : 1 (0x1)
    Format : PGS
    Codec ID : 144
    Language : English

  评论这张
 
阅读(113)| 评论(0)
推荐 转载

历史上的今天

在LOFTER的更多文章

评论

<#--最新日志,群博日志--> <#--推荐日志--> <#--引用记录--> <#--博主推荐--> <#--随机阅读--> <#--首页推荐--> <#--历史上的今天--> <#--被推荐日志--> <#--上一篇,下一篇--> <#-- 热度 --> <#-- 网易新闻广告 --> <#--右边模块结构--> <#--评论模块结构--> <#--引用模块结构--> <#--博主发起的投票-->
 
 
 
 
 
 
 
 
 
 
 
 
 
 

页脚

网易公司版权所有 ©1997-2017