注册 登录  
 加关注
   显示下一条  |  关闭
温馨提示!由于新浪微博认证机制调整,您的新浪微博帐号绑定已过期,请重新绑定!立即重新绑定新浪微博》  |  关闭

逆风飞翔的鸟

追逐风中散落的默契~

 
 
 

日志

 
 
关于我

曾经迷惑于一份距离 曾经感动于一个传说 …… 在仆仆风中 我伸手 抓住你我的缘分 …… “傻傻”的你 能闻到风中 你我的默契吗?!

网易考拉推荐
GACHA精选

【亚洲】Legendary.Amazon.2011.杨门女将之军令如山  

2012-06-10 20:22:22|  分类: 亚洲 |  标签: |举报 |字号 订阅

  下载LOFTER 我的照片书  |
【亚洲】Legendary.Amazon.2011.杨门女将之军令如山 - 归鸿 - 逆风飞翔的鸟

◎英文片名  Legendary Amazons
◎中文片名  杨门女将之军令如山
◎IMDB链接  www.imdb.com/title/tt2106514/
◎国  家  中国 / 中国香港
◎类  别  古装 / 动作 / 战争 / 历史
◎导  演  陈勋奇
◎主  演  张柏芝 Cecilia Cheung  ....穆桂英
            刘晓庆 Xiaoqing Liu  ....柴郡主
            任贤齐 Richie Ren  ....杨宗保
            郑佩佩 Pei-pei Cheng  ....佘太君
            肖明玉 Xiao Ming Yu  ....杨文广
            于娜 Na Yu  ....杨七娘
            周海媚 Kathy Chow  ....杨五娘
            大岛由加利 Yukari ?shima  ....杨二娘
            金巧巧 Jin Qiaoqiao  ....杨三娘
            戈春艳 Chunyan Ge  ....杨大娘
            周小飞 Zhou Xiao-fei  ....杨排风
            赵芊羽 Zhao Qian-yu  ....小豆子
            刘冬 Dong Liu  ....杨九妹
            陈紫函 Zihan Chen  ....杨八姐
            王媞 Katy Wang  ....杨金花
            杨紫彤 Yang Zi-tong  ....杨四娘
            午马 Ma Wu  ....潘仁美
            林威 Wai Lam  ....王强
            黄小瑜 Xiaoyu Huang  ....三娘武将追影
 

◎内容简介 
 
  宋仁宗年间,西夏举兵入侵,镇守天门关的杨门大将杨宗保(任贤齐 饰)英勇奋战,奈何朝廷援兵迟迟未至,人困马乏,弹尽粮绝,坐困愁城。天波府内,穆桂英(张柏芝 饰)从恶梦中惊醒,还没定神下来,便发现带着青丝的信鸽落在窗边,雪白羽翼上染满斑斑血迹,颈上更系着她与宗保之定情信物,桂英暗中明白“物在人在,物失人亡”。
 
    “天门关失守,宗保牺牲!”消息传遍朝野,潘太师和谗臣王强前来宣旨,令杨文广领一万先锋出征西夏,众人看穿二人欲借西夏之手,歼灭杨家血脉,无奈圣命难违,只得接旨。战场上,西夏军为求激将纳谋,遂将宗保尸体高挂于阵前,放火焚烧。文广救父心切,孤军杀入敌阵,桂英、柴郡主(刘晓庆 饰)、佘太君(郑佩佩 饰)及一众女将,恐其势危,于是夺帅定军心后,赶赴营救,谁知久久未能脱险,期间更失去对方踪迹,大娘、七娘亦先后牺牲,杨家军损失惨重,伤亡无数。
 
    眼见杨家军败兵山倒,王强借机下达军令,要依法严惩擅自夺帅的桂英,并讹传文广就在军中,以诱对方前来。众人看穿当中阴谋,着桂英不要中计,奈何她认为若以一人换取朝廷援兵,阻止更多牺牲,也不失为一件好事,更重要是只要有文广消息,不管真假,做母亲都要前往营救。
 
    抵达军营后,王强果然以夺帅罪名拿下桂英,不料宗保及文广突然现身,王强老谋深算,扬言只要宗保亲手处决桂英或文广其中一人,便发兵增援,以解国境之危。宗保陷入两难之境……

 

  General #0
    ID : 0 (0x0)
    Complete name : Legendary.Amazon.2011.BD.REMUX.h264.1080p.ts
    Format : MPEG-TS
    File size : 26.6 GiB
    Duration : 1h 47mn
    Overall bit rate mode : Variable
    Overall bit rate : 35.3 Mbps
  Video #4129
    ID : 4129 (0x1021)
    Menu ID : 1 (0x1)
    Format : AVC
    Format/Info : Advanced Video Codec
    Format profile : High@L4.1
    Format settings, CABAC : Yes
    Format settings, ReFrames : 4 frames
    Codec ID : 27
    Duration : 1h 47mn
    Bit rate mode : Variable
    Bit rate : 32.0 Mbps
    Maximum bit rate : 33.0 Mbps
    Width : 1 920 pixels
    Height : 1 080 pixels
    Display aspect ratio : 16:9
    Frame rate : 24.000 fps
    Color space : YUV
    Chroma subsampling : 4:2:0
    Bit depth : 8 bits
    Scan type : Progressive
    Bits/(Pixel*Frame) : 0.643
    Stream size : 24.1 GiB (91%)
  Audio #4140
    ID : 4140 (0x102C)
    Menu ID : 1 (0x1)
    Format : DTS
    Format/Info : Digital Theater Systems
    Codec ID : 134
    Duration : 1h 47mn
    Bit rate mode : Constant
    Bit rate : 1 510 Kbps
    Channel(s) : 6 channels
    Channel positions : Front: L C R, Side: L R, LFE
    Sampling rate : 48.0 KHz
    Bit depth : 24 bits
    Compression mode : Lossy
    Stream size : 1.14 GiB (4%)
    Language : Chinese

  评论这张
 
阅读(216)| 评论(0)
推荐 转载

历史上的今天

在LOFTER的更多文章

评论

<#--最新日志,群博日志--> <#--推荐日志--> <#--引用记录--> <#--博主推荐--> <#--随机阅读--> <#--首页推荐--> <#--历史上的今天--> <#--被推荐日志--> <#--上一篇,下一篇--> <#-- 热度 --> <#-- 网易新闻广告 --> <#--右边模块结构--> <#--评论模块结构--> <#--引用模块结构--> <#--博主发起的投票-->
 
 
 
 
 
 
 
 
 
 
 
 
 
 

页脚

网易公司版权所有 ©1997-2017