注册 登录  
 加关注
   显示下一条  |  关闭
温馨提示!由于新浪微博认证机制调整,您的新浪微博帐号绑定已过期,请重新绑定!立即重新绑定新浪微博》  |  关闭

逆风飞翔的鸟

追逐风中散落的默契~

 
 
 

日志

 
 
关于我

曾经迷惑于一份距离 曾经感动于一个传说 …… 在仆仆风中 我伸手 抓住你我的缘分 …… “傻傻”的你 能闻到风中 你我的默契吗?!

网易考拉推荐

【剧情】Le.Havre.2011.勒阿弗尔  

2012-06-10 19:35:16|  分类: 剧情 |  标签: |举报 |字号 订阅

  下载LOFTER 我的照片书  |
【剧情】Le.Havre.2011.勒阿弗尔 - 归鸿 - 逆风飞翔的鸟

◎译  名 勒阿弗尔/温心港湾(台)
◎片  名 Le Havre
◎年  代 2011
◎国  家 芬兰/法国/德国
◎类  别 剧情/喜剧
◎语  言 法语
◎字  幕 中文
◎IMDB链接  http://www.imdb.com/title/tt1508675
◎片  长 93 Mins
◎导  演 阿基·考里斯马基 Aki Kaurismaki
◎主  演 安德烈·维尔姆斯 André Wilms ….Marcel Marx
            让-皮埃尔·达鲁山 Jean-Pierre Darroussin ….Monet
            卡蒂·奥廷宁 Kati Outinen ….Arletty
            让-皮埃尔·利奥德 Jean-Pierre Léaud ….Denouncer
            Evelyne Didi ….Yvette
            Elina Salo ….Claire
            Blondin Miguel ….Idrissa
            Quoc Dung Nguyen ….Chang (as Quoc-Dung Nguyen)
            La?ka ….La?ka – Dog
            Fran?ois Monnié ….Grocer
            Roberto Piazza ….Little Bob
            皮埃尔·埃泰 Pierre étaix ….Doctor Becker
            Laika ….Laika
            Myriam ‘Mimie’ Piazza ….Mimie


◎简  介

    以放荡不羁出名的昔日作家Marcel Marx前往港口城市勒阿弗尔隐居并成为擦鞋匠。这份高尚但收入菲薄的工作令他感觉更为接近大众。正当他放弃了作家生涯,心满意足地享受着由附近小饭馆、擦鞋摊及妻子Arletty组成的三点一线的简单生活时,命运却将一个来自黑非洲的移民孩子推到了他跟前。与此同时,妻子Arletty因为重病需要卧床,Marcel不得不再次面对人情冷暖,幸而他生来便性格乐观,且街坊邻居也对他给予热心帮助。警察对避难男孩的管制越来越紧,让他感受到了所谓西方人权国家的压迫。Marcel曲意逢迎、奋起反抗的时候到了。

幕后制作

    这是考里斯马基在1992年的《波西米亚生活》之后再次拍摄的法语对白的影片。在影片进入摄制期的三年前,考里斯马基就有了要讲述非洲孩子在欧洲生活的故事的念头。他一开始想把影片的地点安在马赛或者是西班牙、葡萄牙的港口城市,不过当他发现勒阿弗尔之后,他就笃定本片一定要在这里拍摄。他说:“这里是一个很棒的城市,非常适合这部电影,而且把勒阿弗尔用作电影的名字也很贴切。”影片一共耗资380玩欧元,其中芬兰电影基金会提供了75万欧元。影片2010年3月23日开拍,同年5月12日杀青。影片入围2011年戛纳电影节主竞赛单元,获得舆论界一片赞誉,虽然最终与奖项失之交臂,但还是获得了主评审团之外的国际影评人协会颁出的大奖。

    考里斯马基是芬兰重量级导演,也是戛纳电影节的“常客”。他执导的当代芬兰三部曲《浮云》(1996年)、《没有过去的男人》(2002年)和《薄暮之光》(2006年)都曾入围戛纳电影节主竞赛单元,并凭借《没有过去的男人》获得仅次于金棕榈奖的电影节大奖。从影之前,考里斯马基曾做过邮差、洗碗工。随着涉身影坛,他同哥哥成立了制片及发行公司。从上世纪80年代初至今,兄弟俩制作的影片数量占到芬兰全国电影的五分之一。

    著名导演阿基·考里斯马基结束了他多年以来对奥斯卡的抵制,同意芬兰考虑选派《勒阿弗尔》一片作为申报代表。事实上,考里斯马基并非同好莱坞有过节,而是反对布什政府的伊拉克政策。2003年,他的《没有过去的男人》获得了奥斯卡提名,但他拒绝出席颁奖典礼,而2006年在芬兰政府未经他的许可选派《薄雾之光》之后,考里斯马基要求把影片撤回,致使当年芬兰申报奥斯卡的名额最终空缺。但是在今年,考里斯马基表示对于“换了一位民主党总统和从伊拉克撤兵”的美国,他已经没有了抵制的理由。《勒阿弗尔》虽然尚未被最终选派,但可能性几乎是百分之百。该片曾在今年戛纳电影节获得评审团大奖,这部移民题材,反映底层小人物生活的影片有望受到外语片评委的青睐。
 


  General #1
    ID : 1 (0x1)
    Complete name : 00000.m2ts
    Format : BDAV
    Format/Info : Blu-ray Video
    File size : 16.8 GiB
    Duration : 1h 29mn
    Overall bit rate mode : Variable
    Overall bit rate : 26.7 Mbps
    Maximum Overall bit rate : 35.5 Mbps
  Video #4113
    ID : 4113 (0x1011)
    Menu ID : 1 (0x1)
    Format : AVC
    Format/Info : Advanced Video Codec
    Format profile : High@L4.1
    Format settings, CABAC : Yes
    Format settings, ReFrames : 3 frames
    Codec ID : 27
    Duration : 1h 29mn
    Bit rate mode : Variable
    Bit rate : 24.1 Mbps
    Nominal bit rate : 22.0 Mbps
    Maximum bit rate : 38.0 Mbps
    Width : 1 920 pixels
    Height : 1 080 pixels
    Display aspect ratio : 16:9
    Frame rate : 25.000 fps
    Color space : YUV
    Chroma subsampling : 4:2:0
    Bit depth : 8 bits
    Scan type : Progressive
    Bits/(Pixel*Frame) : 0.466
    Stream size : 15.1 GiB (90%)
    Writing library : x264 core 120 r2146 bcd41db
    Encoding settings : cabac=1 / ref=4 / deblock=1:-1:-1 / analyse=0x3:0x133 / me=umh / subme=10 / psy=1 / psy_rd=1.00:0.15 / mixed_ref=1 / me_range=24 / chroma_me=1 / trellis=2 / 8x8dct=1 / cqm=0 / deadzone=21,11 / fast_pskip=1 / chroma_qp_offset=-3 / threads=36 / sliced_threads=0 / slices=4 / nr=0 / decimate=1 / interlaced=fake / bluray_compat=1 / constrained_intra=0 / bframes=3 / b_pyramid=1 / b_adapt=2 / b_bias=0 / direct=3 / weightb=1 / open_gop=1 / weightp=1 / keyint=25 / keyint_min=2 / scenecut=40 / intra_refresh=0 / rc_lookahead=25 / rc=2pass / mbtree=1 / bitrate=22000 / ratetol=1.0 / qcomp=0.60 / qpmin=0 / qpmax=69 / qpstep=4 / cplxblur=20.0 / qblur=0.5 / vbv_maxrate=38000 / vbv_bufsize=30000 / nal_hrd=vbr / ip_ratio=1.40 / aq=1:1.00
    Color primaries : BT.709-5, BT.1361, IEC 61966-2-4, SMPTE RP177
    Transfer characteristics : BT.709-5, BT.1361
    Matrix coefficients : BT.709-5, BT.1361, IEC 61966-2-4 709, SMPTE RP177
  Audio #4352
    ID : 4352 (0x1100)
    Menu ID : 1 (0x1)
    Format : DTS
    Format/Info : Digital Theater Systems
    Muxing mode : Stream extension
    Codec ID : 134
    Duration : 1h 29mn
    Bit rate mode : Constant
    Bit rate : 1 510 Kbps
    Channel(s) : 6 channels
    Channel positions : Front: L C R, Side: L R, LFE
    Sampling rate : 48.0 KHz
    Bit depth : 24 bits
    Compression mode : Lossy
    Stream size : 970 MiB (6%)
    Language : French
  Text #4608
    ID : 4608 (0x1200)
    Menu ID : 1 (0x1)
    Format : PGS
    Codec ID : 144
    Language : Chinese
  Text #4609
    ID : 4609 (0x1201)
    Menu ID : 1 (0x1)
    Format : PGS
    Codec ID : 144
    Language : Chinese
  Text #4610
    ID : 4610 (0x1202)
    Menu ID : 1 (0x1)
    Format : PGS
    Codec ID : 144
    Language : English
  Text #4611
    ID : 4611 (0x1203)
    Menu ID : 1 (0x1)
    Format : PGS
    Codec ID : 144
    Language : Finnish
  Text #4612
    ID : 4612 (0x1204)
    Menu ID : 1 (0x1)
    Format : PGS
    Codec ID : 144
    Language : Norwegian
  Text #4613
    ID : 4613 (0x1205)
    Menu ID : 1 (0x1)
    Format : PGS
    Codec ID : 144
    Language : Swedish

  评论这张
 
阅读(142)| 评论(0)
推荐 转载

历史上的今天

在LOFTER的更多文章

评论

<#--最新日志,群博日志--> <#--推荐日志--> <#--引用记录--> <#--博主推荐--> <#--随机阅读--> <#--首页推荐--> <#--历史上的今天--> <#--被推荐日志--> <#--上一篇,下一篇--> <#-- 热度 --> <#-- 网易新闻广告 --> <#--右边模块结构--> <#--评论模块结构--> <#--引用模块结构--> <#--博主发起的投票-->
 
 
 
 
 
 
 
 
 
 
 
 
 
 

页脚

网易公司版权所有 ©1997-2017