注册 登录  
 加关注
   显示下一条  |  关闭
温馨提示!由于新浪微博认证机制调整,您的新浪微博帐号绑定已过期,请重新绑定!立即重新绑定新浪微博》  |  关闭

逆风飞翔的鸟

追逐风中散落的默契~

 
 
 

日志

 
 
关于我

曾经迷惑于一份距离 曾经感动于一个传说 …… 在仆仆风中 我伸手 抓住你我的缘分 …… “傻傻”的你 能闻到风中 你我的默契吗?!

网易考拉推荐

【剧情】Goon.2011.冰球坏小子  

2012-06-10 19:31:50|  分类: 剧情 |  标签: |举报 |字号 订阅

  下载LOFTER 我的照片书  |
【剧情】Goon.2011.冰球坏小子 - 归鸿 - 逆风飞翔的鸟

◎译  名 冰球坏小子/冰场打架王
◎片  名 goon
◎年  代 2012
◎国  家 美国/加拿大
◎类  别 喜剧/运动
◎IMDB链接  http://www.imdb.com/title/tt1456635/
◎语  言 英语
◎字  幕 中文
◎片  长 92 mins 9 seconds
◎导  演 迈克尔·道斯
◎主  演 西恩·威廉·斯科特 Seann William Scott  ....Doug Glatt
            杰伊·巴鲁切尔 Jay Baruchel  ....Ryan
            艾丽森·皮尔 Alison Pill  ....Eva
            列维·施瑞博尔 Liev Schreiber  ....Ross Rhea
            尤金·列维 Eugene Levy  ....Dr. Glatt
            马克-安德烈·格隆丁 Marc-Andre Grondin  ....Xavier Laflamme
            金·寇兹 Kim Coates  ....Ronnie Hortense
            尼古拉斯·坎贝尔 Nicholas Campbell  ....Rollie Hortense
            理查德·克拉金 Richard Clarkin  ....Gord Ogilvey
            乔纳森·切瑞 Jonathan Cherry  ....Marco Belchier
            Ricky Mabe  ....John Stevenson
            George Tchortov  ....Evgeni
            Karl Graboshas  ....Oleg
            拉里·吴 Larry Woo  ....Park Kim
            Steve Sim  ....Backup Goalie (as Stephen Sim)
            艾伦·大卫 Ellen David  ....Mrs. Glatt
            大卫·帕特考 David Paetkau  ....Ira Glatt
            迈克·贝尔 Mike Bell  ....Donovan
            Jeff Strome  ....Oldfield
            杰夫·沃尔 Jeff Wahl  ....Reg (as Jeff Scott Wahl)
            戴夫·惠勒 Dave Wheeler  ....Sportscaster
            布赖恩·克拉克 Bryan Clark  ....Bartender
            大卫·邓肯 David Duncan  ....Darren
            帕特丽夏·艾德格 Patricia Edgar  ....Elderly Waitress
            詹姆斯·达勒姆 James Durham  ....Customer
            杰夫·布罗姆利 Jeff Bromley  ....Guy
            唐·卡莫迪 Don Carmody  ....Guy in Leather Jacket
            卡莉恩·鲍姆贝克 Kalyn Bomback  ....Kelly
            多米尼克·布莱斯 Dominick Blais  ....O'Sullivan
            Curt Keilback  ....Rod McCaudry
            James Knight  ....Rod
            Amy Groening  ....Teenage Singer
            阿里·哈桑 Ali Hassan  ....Uncle Stevie
            肖恩·斯基恩 Sean Skene  ....Assassin #1
            Gabriel Daniels  ....Blanko
            Ken St. Mars  ....Hamilton defenseman
            Derrick Pollanski  ....Lowell Kings opponent
            Tim Kiriluk  ....Mirimachi opponent #1
            Lance 'The Snake' Cartwright  ....Mirimachi opponent #2 (as Lance Cartwright)
            Georges Laraque  ....Huntington
            Veronica Malinowski  ....Paris Hilton lookalike
            Geoff Banjavich  ....Brandon
            Mark Olafson  ....Flannerty
            David Lawrence  ....Richard
            Marc Joyal  ....Quebec Fab
            Brandy Jaques  ....Stripper
            Howard Jerome  ....Mr. Cohen
            Aron Tager  ....Mr. Goldsmith
            西德尼·利德 Sidney Leeder  ....Young Woman
            莎拉·谢弗尔 Sarah Scheffer  ....Barbara Cohen
            Shailee Ferguson  ....BGP (uncredited)
            Braeley Hobbs  ....Rachel (uncredited)
            Mitchell Kummen  ....Autograph seeker (uncredited)
            Christian Lalonde  ....Simard (uncredited)
            泰瑞·雷 Terry Ray  ....Assassin Player (uncredited)
            迈克·史密斯 Mike Smith  ....Production Assisstant #2 (uncredited)
            Clayton T. Stewart  ....Crazy Fan (uncredited)
            John Paul Tremblay  ....Production Assisstant #3 (uncredited)
            Robb Wells  ....Production Assisstant #1 (uncredited)           


◎简  介

  道格·格拉特是马萨诸塞州的一个小人物,他是一个保安,而他的家人却都是医生,所以他的生活郁郁不得志。有一次,他和朋友一起去看当地的冰球联盟的比赛。因为朋友对一个被罚出场的队员出言不逊,而招来了麻烦。情急之下,格拉特一头撞晕了那个队员。这起“暴力事件”非但没有让格拉特身陷囹囫,反而让他的打架才能得到了冰球队教练的赏识。

  不久之后,格拉特就成为了该冰球队的一名队员。不会滑冰的他在场上的唯一任务就是打架、保护同队的其他队员不受伤。几场比赛之后,格拉特的打架能力得到了充分的发挥,他也成了当地冰球界的一颗冉冉升起的新星。而他自己,也找到了久违的快感和生活的乐趣。不过,愉快的事情总是来得快、去得也快。很快,格拉特就面临一个大敌的挑战--他本人的偶像,极为擅长打架的BOSS罗斯就要回到球场上了。

  当然,除了这个对手之外,格拉特所在的球队也需要用胜利来挺近季后赛,而只负责打架的格拉特竟然连滑冰都不会。不过,这一切还不算太晚,他决定做好一切准备迎接挑战,苦练滑冰技术,而且他还发现了自己竟然有射门的天赋。不知道接下来的比赛能成全格拉特并让他收货一份爱情么?


◎一句话评论

冰球场上的“拳击手”,这样的队员很少受到应有的重视。不过在这部电影里,这个角色却大放异彩,让人们看到了冰球的另一面。

西恩·威廉·斯科特反类型化的表演令人印象深刻,充满了笑料。但是影片还是相当粗鄙,和其他的冰球喜剧片没什么区别。

这是从《火爆群龙》以来最好的冰球喜剧片。

《呆子》是一部观赏性极佳的影片。其中的笑料和噱头,大都来自演员们的表演。


◎幕后制作

  加拿大人对冰球的热情要超过美国人,但是那部被誉为“最佳冰球片”的《火爆群龙》却并非出自加拿大的电影人之手,这令很多人愤愤不平。不过,机会总是不期而遇。一本名为《呆子:一个讲述冰球世界的不可思议之旅》(Goon: The True Story of an Unlikely Journey into Minor League Hockey)的纪实性文学作品就摆在了加拿大的制片人大卫·格罗斯的面前。这本书的作者是亚当·弗拉塔西奥和道格·史密斯,记述的是道格·史密斯从一个普通人变成冰球运动员的经历。

  在得到小说的改编权之后,几经辗转,大卫·格罗斯找到了加拿大编剧、演员杰伊·巴鲁切尔,希望由他来撰写影片的剧本。不过,巴鲁切尔已经很长时间没有生活在加拿大了,他一直在加州享受阳光和温暖。他说:“我对冰球的印象全部来自自己的父亲,那时候加拿大人似乎总是在谈论冰球,我爸爸喜欢的那些冰球运动员,几乎都是猛男,他们的一些比赛,都让我留下了很深刻的印象。”答应了格罗斯的请求之后,巴鲁切尔又找到了几个其他的编剧,和他一起改编剧本。巴鲁切尔说:“我们的确找到了很多很出色的编剧。他们为剧本带来了灵魂和那些冰球的个性。”

  而执导影片的迈克尔·道斯本人就是个冰球迷,冰球已经深入到他的DNA之中了。所以在格罗斯看来,由他来指导影片是再合适也不过的。道斯说:“能拍摄这么一部冰球电影,对于我来说,是再好不过的,因为我自己就是一个冰球迷,而且对这项运动非常着迷。这是一个很残酷的运动,充满了危险和暴力。但是同时,这又是一个团队运动,只属于男人。最重要的是,他们的剧本是一个喜剧故事,这又是我的最爱。所以,我几乎是看完了剧本,就有那种要拍摄电影的冲动。”喜剧、冰球和暴力,是这部电影最重要的三个元素。但是拍摄冰球电影的难度绝对很大,因为有时候运动员在冰面上的滑行速度可以达到45kmph,所以,要在影片中展示什么语言上的笑料,是不可能的。道斯说:“因为运动很快,所以没法让演员们停下来表演。这部电影只好被拍摄成了一部动作喜剧。我们让演员用自己的肢体、表情和其他一系列的动作来制造笑料。这样做,效果也挺好。整部影片充满了好笑的暴力镜头,它们不会使人感到恐惧,只会让人觉得好笑。扮演主角的西恩·威廉·斯科特非常出色,他在片中几乎没有做什么夸张的表演,从头到尾就是一种傻乎乎、很固执、搞不清状况的表情,这样的一种角色,为影片带来的落差和笑料,非常有趣。而列维·施瑞博尔一向扮演猛男,这次他扮演的Boss这个角色,也非常符合他本人的性格和外貌特征。总而言之,在这两个演员的表演之下,拍摄得非常流畅,也很令人开心。”

  在片中饰演道格好友的“阿帕图帮”成员杰伊·巴鲁切尔在谈到这部片子时形容它为“史上最残酷的,最粗暴的,爆最多粗口的,最赞的冰球电影。”“一个比《愤怒的公牛》更有趣的片子。很贱,很真实,它是除却那些废话连篇的冰球电影的陈词滥调以外的关于冰球的一切。这是冰球迷们想要的一部坏小子电影,这是他们一生在等待的电影。它将是1977年的《Slapshot》之后最好的冰球电影。”


◎花    絮

·为了扮演这个角色,西恩·威廉·斯科特特意增重,并且还学习了如何一边滑冰一边打架。

·在影片中,西恩·威廉·斯科特扮演的道格·格拉特在两支球队里效力,一支是The Orangetown Assassins,穿着橙黑色队服;另一支是Halifax Highlanders,标志是一个大写的H,右边有一个点,左边有一个翅膀。这两个队的装扮都是在暗示NHL的一支球队,Philadelphia Flyers。

·凯文·史密斯原本想在自己的冰球影片《进球得分》中,让西恩·威廉·斯科特扮演主角的。可是在2010年11月的时候,凯文却宣布《进球得分》的主演将由尼可拉斯·博朗扮演。

·列维·施瑞博尔把自己的角色比作冰球运动员鲍勃·罗伯特。为了向这位运动员致敬,列维·施瑞博尔和鲍勃·罗伯特一样,用绷带缠住了自己的手腕。

·Georges Laraque,这位前NHL的球员在影片中扮演了一个小角色,他和西恩·威廉·斯科特和列维·施瑞博尔都打了架。

·因为暴力事件,列维·施瑞博尔扮演的角色被停赛了20场。这其实是在影射NHL运动员Marty McSorley。McSorley曾经在2000年的一场比赛中做了同样的事情,随后被禁赛23场。

 

  General #1
    ID : 1 (0x1)
    Complete name : 00000.m2ts
    Format : BDAV
    Format/Info : Blu-ray Video
    File size : 19.6 GiB
    Duration : 1h 32mn
    Overall bit rate mode : Variable
    Overall bit rate : 30.5 Mbps
    Maximum Overall bit rate : 35.5 Mbps
  Video #4113
    ID : 4113 (0x1011)
    Menu ID : 1 (0x1)
    Format : AVC
    Format/Info : Advanced Video Codec
    Format profile : High@L4.1
    Format settings, CABAC : Yes
    Format settings, ReFrames : 4 frames
    Codec ID : 27
    Duration : 1h 31mn
    Bit rate mode : Variable
    Bit rate : 26.2 Mbps
    Maximum bit rate : 35.0 Mbps
    Width : 1 920 pixels
    Height : 1 080 pixels
    Display aspect ratio : 16:9
    Frame rate : 23.976 fps
    Standard : NTSC
    Color space : YUV
    Chroma subsampling : 4:2:0
    Bit depth : 8 bits
    Scan type : Progressive
    Bits/(Pixel*Frame) : 0.527
    Stream size : 16.8 GiB (85%)
    Color primaries : BT.709-5, BT.1361, IEC 61966-2-4, SMPTE RP177
    Transfer characteristics : BT.709-5, BT.1361
    Matrix coefficients : BT.709-5, BT.1361, IEC 61966-2-4 709, SMPTE RP177
  Audio #4352-253-113
    ID : 4352 (0x1100)-253 (0xFD)-113 (0x71)
    Menu ID : 1 (0x1)
    Format : DTS
    Format/Info : Digital Theater Systems
    Format profile : MA / Core
    Muxing mode : Stream extension
    Codec ID : 134
    Duration : 1h 31mn
    Bit rate mode : Variable
    Bit rate : 1 561 Kbps / 1 510 Kbps
    Channel(s) : 6 channels
    Channel positions : Front: L C R, Side: L R, LFE
    Sampling rate : 48.0 KHz
    Bit depth : 24 bits
    Compression mode : Lossless / Lossy
    Language : English
  Audio #4352-223
    ID : 4352 (0x1100)-223 (0xDF)
    Menu ID : 1 (0x1)
    Format : DTS
    Format/Info : Digital Theater Systems
    Duration : 1h 32mn
    Bit rate mode : Constant
    Bit rate : 1 510 Kbps
    Channel(s) : 6 channels
    Channel positions : Front: L C R, Side: L R, LFE
    Sampling rate : 48.0 KHz
    Bit depth : 24 bits
    Compression mode : Lossy
    Stream size : 995 MiB (5%)
  Text #4608
    ID : 4608 (0x1200)
    Menu ID : 1 (0x1)
    Format : PGS
    Codec ID : 144
    Delay relative to video : 10s 802ms
    Language : Chinese
  Text #4609
    ID : 4609 (0x1201)
    Menu ID : 1 (0x1)
    Format : PGS
    Codec ID : 144
    Delay relative to video : 10s 802ms
    Language : Chinese
  Text #4610
    ID : 4610 (0x1202)
    Menu ID : 1 (0x1)
    Format : PGS
    Codec ID : 144
    Language : English
  Text #4611
    ID : 4611 (0x1203)
    Menu ID : 1 (0x1)
    Format : PGS
    Codec ID : 144
    Delay relative to video : 11s 261ms
    Language : Spanish

  评论这张
 
阅读(227)| 评论(0)
推荐 转载

历史上的今天

在LOFTER的更多文章

评论

<#--最新日志,群博日志--> <#--推荐日志--> <#--引用记录--> <#--博主推荐--> <#--随机阅读--> <#--首页推荐--> <#--历史上的今天--> <#--被推荐日志--> <#--上一篇,下一篇--> <#-- 热度 --> <#-- 网易新闻广告 --> <#--右边模块结构--> <#--评论模块结构--> <#--引用模块结构--> <#--博主发起的投票-->
 
 
 
 
 
 
 
 
 
 
 
 
 
 

页脚

网易公司版权所有 ©1997-2017