注册 登录  
 加关注
   显示下一条  |  关闭
温馨提示!由于新浪微博认证机制调整,您的新浪微博帐号绑定已过期,请重新绑定!立即重新绑定新浪微博》  |  关闭

逆风飞翔的鸟

追逐风中散落的默契~

 
 
 

日志

 
 
关于我

曾经迷惑于一份距离 曾经感动于一个传说 …… 在仆仆风中 我伸手 抓住你我的缘分 …… “傻傻”的你 能闻到风中 你我的默契吗?!

网易考拉推荐

【剧情】Goodbye.Children.1987.再见,孩子们  

2012-05-23 10:45:07|  分类: 剧情 |  标签: |举报 |字号 订阅

  下载LOFTER 我的照片书  |
【剧情】Goodbye.Children.1987.再见,孩子们-27.9G - 归鸿 - 归鸿影音

◎片  名 Au.Revoir,Les.Enfants/Goodbye Children
◎译  名 再见,孩子们/ 童年再见/ 再见童年
◎年  代 1987
◎地  区 法国 / 西德
◎类  别 剧情/战争
◎语  言 法语 / 德语
◎IMDB链接  http://www.imdb.com/title/tt0092593/
◎片  长  105 mins 1 seconds
◎导  演 路易·马勒 Louis Malle
◎主  演 Gaspard Manesse
            Raphael Fejt?
            Francine Racette
            Stanislas Carré de Malberg
            Philippe Morier-Genoud
            菲力普·莫瑞亚·尚德(Philippe Morier-Genoud)
            弗朗西斯·贝尔兰德(Fran?ois Berléand)
            Fran?ois Négret
            Peter Fitz
            Pascal Rivet
            Beno?t Henriet
            Richard Leboeuf
            Xavier Legrand
            Arnaud Henriet
            Jean-Sébastien Chauvin
            Luc Etienne
            Daniel Edinger
            Marcel Bellot
            Ami Flammer
            伊莲娜·雅格布(Irène Jacob)
            Jean-Paul Dubarry
            Jacqueline Staup
            Jacqueline Paris
            René Bouloc
            Alain Clément
            Michael Rottstock
            Detlef Gericke
            Michael Becker
            Thomas Friedl
            Christian Sohn
            Michel Ginot
            Philippe Despaux
 

◎剧情简介
 
    二战末期,德国的反犹政策还在坚定不移地推行着。来自马赛的犹太孩子波奈特(拉法艾丽·弗托Raphael Fejt? 饰)因此家破人亡,被送到法国的学校念书。在这里,他一直小心翼翼的保守着他的秘密,但还是因为新生的关系常常遭到同学戏弄。其中就有法国有钱家庭出身的朱利安(加斯帕尔·马奈斯Gaspard Manesse 饰)。

    朱利安和波奈特成为了室友,在共同相处的日子里,朱利安发现,这个经常被欺负的男孩有着跟自己志趣相投的一面。两人的关系渐渐融洽,成了童年要好的伙伴。当朱利安从种种迹象猜测出波奈特的犹太人背景时,他没有疏远波奈特,而且还帮忙隐藏这个秘密。也许在孩子的心中,政治世界在真挚的友谊面前显得太过渺小。

    然而,大人的魔掌还是侵入了波奈特的人生...
 

◎获奖记录

威尼斯电影节金狮奖、法国恺撒奖7项大奖、1988年英国电影奖最佳导演

 

  General #1
    ID : 1 (0x1)
    Complete name : 00000.m2ts
    Format : BDAV
    Format/Info : Blu-ray Video
    File size : 27.9 GiB
    Duration : 1h 45mn
    Overall bit rate mode : Variable
    Overall bit rate : 38.0 Mbps
    Maximum Overall bit rate : 35.5 Mbps
  Video #4113
    ID : 4113 (0x1011)
    Menu ID : 1 (0x1)
    Format : AVC
    Format/Info : Advanced Video Codec
    Format profile : High@L4.1
    Format settings, CABAC : Yes
    Format settings, ReFrames : 4 frames
    Codec ID : 27
    Duration : 1h 45mn
    Bit rate mode : Variable
    Bit rate : 35.4 Mbps
    Maximum bit rate : 37.0 Mbps
    Width : 1 920 pixels
    Height : 1 080 pixels
    Display aspect ratio : 16:9
    Frame rate : 23.976 fps
    Color space : YUV
    Chroma subsampling : 4:2:0
    Bit depth : 8 bits
    Scan type : Progressive
    Bits/(Pixel*Frame) : 0.712
    Stream size : 25.9 GiB (93%)
  Audio #4352
    ID : 4352 (0x1100)
    Menu ID : 1 (0x1)
    Format : PCM
    Format settings, Endianness : Big
    Format settings, Sign : Signed
    Muxing mode : Blu-ray
    Codec ID : 128
    Duration : 1h 44mn
    Bit rate mode : Constant
    Bit rate : 1 152 Kbps
    Encoded bit rate : 2 304 Kbps
    Channel(s) : 1 channel
    Channel positions : Front: C
    Sampling rate : 48.0 KHz
    Bit depth : 24 bits
    Stream size : 861 MiB (3%)
    Language : French
  Text #4608
    ID : 4608 (0x1200)
    Menu ID : 1 (0x1)
    Format : PGS
    Codec ID : 144
    Language : Chinese
  Text #4609
    ID : 4609 (0x1201)
    Menu ID : 1 (0x1)
    Format : PGS
    Codec ID : 144
    Language : Chinese
  Text #4610
    ID : 4610 (0x1202)
    Menu ID : 1 (0x1)
    Format : PGS
    Codec ID : 144
    Language : English

  评论这张
 
阅读(153)| 评论(0)
推荐 转载

历史上的今天

在LOFTER的更多文章

评论

<#--最新日志,群博日志--> <#--推荐日志--> <#--引用记录--> <#--博主推荐--> <#--随机阅读--> <#--首页推荐--> <#--历史上的今天--> <#--被推荐日志--> <#--上一篇,下一篇--> <#-- 热度 --> <#-- 网易新闻广告 --> <#--右边模块结构--> <#--评论模块结构--> <#--引用模块结构--> <#--博主发起的投票-->
 
 
 
 
 
 
 
 
 
 
 
 
 
 

页脚

网易公司版权所有 ©1997-2017