注册 登录  
 加关注
   显示下一条  |  关闭
温馨提示!由于新浪微博认证机制调整,您的新浪微博帐号绑定已过期,请重新绑定!立即重新绑定新浪微博》  |  关闭

逆风飞翔的鸟

追逐风中散落的默契~

 
 
 

日志

 
 
关于我

曾经迷惑于一份距离 曾经感动于一个传说 …… 在仆仆风中 我伸手 抓住你我的缘分 …… “傻傻”的你 能闻到风中 你我的默契吗?!

网易考拉推荐

【亚洲】Mr.and.Mrs.Gambler.2012.烂赌夫斗烂赌妻  

2012-05-22 09:05:48|  分类: 亚洲 |  标签: |举报 |字号 订阅

  下载LOFTER 我的照片书  |
【亚洲】Mr.and.Mrs.Gambler.2012.烂赌夫斗烂赌妻 - 归鸿 - 归鸿影音

◎译  名 烂赌夫斗烂赌妻
◎片  名 Mr. Mrs. Gambler
◎年  代 2012
◎国  家 中国香港
◎类  别 喜剧
◎语  言 粤语/普通话
◎IMDB链接  http://www.imdb.com/title/tt2308797
◎片  长 01:40:20 (h:m:s)
◎导  演 王晶   Jing Wong
◎主  演 杜汶泽 Chapman To
            薛凯琪 Fiona Sit
            罗家英 Kar-Ying Law
            朱咪咪 Mimi Zhu
            温超 Chao Wen
            伍允龙 Philip Ng
      

◎简  介 

    舒奇(杜汶泽 饰)及香香(薛凯琪 饰)两人极度烂赌,任何时间都会赌瘾发作。二人本来不相识,但於澳门同时因欠下贵利赌债而被高利贷集团软禁在一起;期间更互生情愫,志趣相投的他们回港後决定结婚。

  二人结婚后事业爱情两得意,更诞下女儿舒小小。舒奇被导演Michelle垂青担任电影男主角;香香亦因对赌术的研究被赌场老板Sam罗致对付老千。原是前度情侣的Michelle跟Sam各自被舒奇及香香吸引,更向二人展开热烈追求;舒奇及香香敌不过诱惑,决定离婚。

  舒奇及香香均希望获得女儿舒小小的抚养权,唯有告上法庭。法官建议二人比赛戒赌一星期,破戒者会失去抚养权。这对二人来说已经是苦事,无奈Michelle跟Sam更不断从中作梗,为与旧情人争胜而全力设陷阱引诱二人破赌戒。终於到戒赌比赛的最後一天,意想不到的事情竟然发生了……

 

  General #1
    ID : 1 (0x1)
    Complete name : 00000.m2ts
    Format : BDAV
    Format/Info : Blu-ray Video
    File size : 18.6 GiB
    Duration : 1h 40mn
    Overall bit rate mode : Variable
    Overall bit rate : 26.5 Mbps
    Maximum Overall bit rate : 35.5 Mbps
  Video #4113
    ID : 4113 (0x1011)
    Menu ID : 1 (0x1)
    Format : AVC
    Format/Info : Advanced Video Codec
    Format profile : High@L4.1
    Format settings, CABAC : Yes
    Format settings, ReFrames : 4 frames
    Format settings, GOP : M=3, N=24
    Codec ID : 27
    Duration : 1h 40mn
    Bit rate mode : Variable
    Bit rate : 21.1 Mbps
    Maximum bit rate : 31.0 Mbps
    Width : 1 920 pixels
    Height : 1 080 pixels
    Display aspect ratio : 16:9
    Frame rate : 24.000 fps
    Standard : NTSC
    Color space : YUV
    Chroma subsampling : 4:2:0
    Bit depth : 8 bits
    Scan type : Progressive
    Bits/(Pixel*Frame) : 0.425
    Stream size : 14.8 GiB (80%)
    Color primaries : BT.709-5, BT.1361, IEC 61966-2-4, SMPTE RP177
    Transfer characteristics : BT.709-5, BT.1361
    Matrix coefficients : BT.709-5, BT.1361, IEC 61966-2-4 709, SMPTE RP177
  Audio #4352
    ID : 4352 (0x1100)
    Menu ID : 1 (0x1)
    Format : DTS
    Format/Info : Digital Theater Systems
    Muxing mode : Stream extension
    Codec ID : 134
    Duration : 1h 39mn
    Bit rate mode : Constant
    Bit rate : 1 510 Kbps
    Channel(s) : 6 channels
    Channel positions : Front: L C R, Side: L R, LFE
    Sampling rate : 48.0 KHz
    Bit depth : 16 bits
    Compression mode : Lossy
    Delay relative to video : 2s 0ms
    Stream size : 1.05 GiB (6%)
    Language : Chinese
  Audio #4353
    ID : 4353 (0x1101)
    Menu ID : 1 (0x1)
    Format : DTS
    Format/Info : Digital Theater Systems
    Format profile : MA / Core
    Muxing mode : Stream extension
    Codec ID : 134
    Duration : 309ms
    Bit rate mode : Variable
    Bit rate : 2 812 Kbps / 1 510 Kbps
    Channel(s) : 6 channels
    Channel positions : Front: L C R, Side: L R, LFE
    Sampling rate : 48.0 KHz
    Bit depth : 16 bits
    Compression mode : Lossless / Lossy
    Delay relative to video : 2s 0ms
    Language : Chinese
  Text #4608
    ID : 4608 (0x1200)
    Menu ID : 1 (0x1)
    Format : PGS
    Codec ID : 144
    Language : Chinese
  Text #4609
    ID : 4609 (0x1201)
    Menu ID : 1 (0x1)
    Format : PGS
    Codec ID : 144
    Language : Chinese
  Text #4610
    ID : 4610 (0x1202)
    Menu ID : 1 (0x1)
    Format : PGS
    Codec ID : 144
    Language : English

  评论这张
 
阅读(169)| 评论(0)
推荐 转载

历史上的今天

在LOFTER的更多文章

评论

<#--最新日志,群博日志--> <#--推荐日志--> <#--引用记录--> <#--博主推荐--> <#--随机阅读--> <#--首页推荐--> <#--历史上的今天--> <#--被推荐日志--> <#--上一篇,下一篇--> <#-- 热度 --> <#-- 网易新闻广告 --> <#--右边模块结构--> <#--评论模块结构--> <#--引用模块结构--> <#--博主发起的投票-->
 
 
 
 
 
 
 
 
 
 
 
 
 
 

页脚

网易公司版权所有 ©1997-2017