注册 登录  
 加关注
   显示下一条  |  关闭
温馨提示!由于新浪微博认证机制调整,您的新浪微博帐号绑定已过期,请重新绑定!立即重新绑定新浪微博》  |  关闭

逆风飞翔的鸟

追逐风中散落的默契~

 
 
 

日志

 
 
关于我

曾经迷惑于一份距离 曾经感动于一个传说 …… 在仆仆风中 我伸手 抓住你我的缘分 …… “傻傻”的你 能闻到风中 你我的默契吗?!

网易考拉推荐

【幻想】The.Mutant.Chronicles.2008.变异编年史  

2012-05-21 17:45:00|  分类: 幻想 |  标签: |举报 |字号 订阅

  下载LOFTER 我的照片书  |
【幻想】The.Mutant.Chronicles.2008.变异编年史 - 归鸿 - 归鸿影音

◎译  名 变异编年史/突变末日
◎片  名 The Mutant Chronicles
◎年  代 2008
◎国  家 美国
◎类  别 动作/科幻/冒险
◎语  言 英语
◎IMDB链接  http://www.imdb.com/title/tt0490181
◎片  长 111 Mins
◎导  演 西蒙·亨特
◎主  演 托马斯·简 Thomas Jane .....Major Mitch Hunter
       戴文青木 Devon Aoki .....Valerie Duval
       朗·普尔曼 Ron Perlman .....Brother Samuel
       约翰·马尔科维奇 John Malkovich .....Constantine
       西恩·帕特维 Sean Pertwee .....Nathan
       Benno Fürmann .....Steiner
       肖娜·麦克唐纳德 Shauna Macdonald .....Adelaide
       Roger Ashton-Griffiths .....Science Monk
       Steve Toussaint .....Maguire
       Pras .....Captain Michaels
       Christopher Adamson .....Hodge
       克里斯托弗·福什 Christopher Fosh .....Capital Soldier/Gunner
       Farhan Khan .....Lead Mutant
       安娜·沃尔顿 Anna Walton .....Severian
       Christopher Dunne .....Medic
 

◎简  介 
 
    故事发生在2027年,地球的资源已经消耗殆尽,4个由军人领导的政府——国会、包豪斯、三岛和帝国——瓜分着世界的统治权,发动着连绵不断的战争。

    米奇·亨特是隶属于国会政党的士兵,在一次行动中,他无意中破坏了一枚古代石头封印,可怕的敌人被释放出来,那是如僵尸一般浑身腐烂的**突变怪物。这群数量达百万的突变怪物让已经破败不堪的地球雪上加霜。领导者甚至打算放弃地球独自逃命,弃无数无辜的人们于不顾。

    从突变怪物的袭击下死里逃生的亨特,遇见了“兄弟会”的头领萨缪尔,后者拥有一本古代书籍《编年史》。书中预言到突变生物的出现,以及将有一群人“传递者”将最终毁灭它们。亨特加入了萨缪尔的队伍,一行人冒险潜入黑暗世界的中心拯救世界。他们不但要对抗大批的歹徒,同时还要面对不死的突变怪物的袭击……

 

  General #1
    ID : 1 (0x1)
    Complete name : 00000.m2ts
    Format : BDAV
    Format/Info : Blu-ray Video
    File size : 15.8 GiB
    Duration : 1h 51mn
    Overall bit rate : 20.2 Mbps
    Maximum Overall bit rate : 35.5 Mbps
  Video #4113
    ID : 4113 (0x1011)
    Menu ID : 1 (0x1)
    Format : VC-1
    Format profile : Advanced@L3
    Codec ID : 234
    Duration : 1h 51mn
    Bit rate : 16.4 Mbps
    Width : 1 920 pixels
    Height : 1 080 pixels
    Display aspect ratio : 16:9
    Frame rate : 23.976 fps
    Chroma subsampling : 4:2:0
    Bit depth : 8 bits
    Scan type : Progressive
    Compression mode : Lossy
    Bits/(Pixel*Frame) : 0.330
    Stream size : 12.8 GiB (81%)
  Audio #4352
    ID : 4352 (0x1100)
    Menu ID : 1 (0x1)
    Format : DTS
    Format/Info : Digital Theater Systems
    Format profile : HRA / Core
    Muxing mode : Stream extension
    Codec ID : 133
    Duration : 1s 109ms
    Bit rate mode : Constant
    Bit rate : 3 019 Kbps / 1 510 Kbps
    Channel(s) : 8 channels / 6 channels
    Channel positions : Front: L C R, Side: L R, Back: L R, LFE / Front: L C R, Side: L R, LFE
    Sampling rate : 48.0 KHz
    Bit depth : 24 bits
    Compression mode : Lossy
    Stream size : 409 KiB (0%)
    Language : English
  Text #4608
    ID : 4608 (0x1200)
    Menu ID : 1 (0x1)
    Format : PGS
    Codec ID : 144
    Delay relative to video : 3s 253ms
    Language : Chinese
  Text #4609
    ID : 4609 (0x1201)
    Menu ID : 1 (0x1)
    Format : PGS
    Codec ID : 144
    Language : English

  评论这张
 
阅读(115)| 评论(0)
推荐 转载

历史上的今天

在LOFTER的更多文章

评论

<#--最新日志,群博日志--> <#--推荐日志--> <#--引用记录--> <#--博主推荐--> <#--随机阅读--> <#--首页推荐--> <#--历史上的今天--> <#--被推荐日志--> <#--上一篇,下一篇--> <#-- 热度 --> <#-- 网易新闻广告 --> <#--右边模块结构--> <#--评论模块结构--> <#--引用模块结构--> <#--博主发起的投票-->
 
 
 
 
 
 
 
 
 
 
 
 
 
 

页脚

网易公司版权所有 ©1997-2017