注册 登录  
 加关注
   显示下一条  |  关闭
温馨提示!由于新浪微博认证机制调整,您的新浪微博帐号绑定已过期,请重新绑定!立即重新绑定新浪微博》  |  关闭

逆风飞翔的鸟

追逐风中散落的默契~

 
 
 

日志

 
 
关于我

曾经迷惑于一份距离 曾经感动于一个传说 …… 在仆仆风中 我伸手 抓住你我的缘分 …… “傻傻”的你 能闻到风中 你我的默契吗?!

网易考拉推荐

【动作】The.Gray.Man.2007.灰色人  

2012-05-21 11:36:27|  分类: 动作 |  标签: |举报 |字号 订阅

  下载LOFTER 我的照片书  |
【动作】The.Gray.Man.2007.灰色人 - 归鸿 - 归鸿影音

◎译  名 灰色人
◎片  名 The Gray Man
◎年  代 2007
◎国  家 美国
◎类  别 犯罪/惊悚
◎语  言 英语
◎字  幕 中文
◎IMDB链接  http://www.imdb.com/title/tt0478329/
◎片  长 96 mins
◎导  演 Scott L. Flynn
◎主  演 帕特里克·波查 Patrick Bauchau ....Albert Fish
       Jack Conley ....Det. Will King
       塞拉斯·威尔·米切尔 Silas Weir Mitchell ....Albert Fish, Jr.
       John Aylward ....Captain Ayers
       Jillian Armenante ....Delia Budd
       维托·鲁吉尼斯 Vyto Ruginis ....Detective Maher
       Mollie Milligan ....Gertrude
       Lexi Ainsworth ....Grace Budd
       Shaun Senter ....Pale Boy
       Ben Hall ....Albert Budd
       Colin Anderson ....Spanked Boy
       Brett Bower ....Lee Sicowski
       Joshua Morris ....News Vendor (as Joshua Morris)
       Morgan Brown ....Reporter #1
       Jason Burkhart ....John DeMarco
       Lisa Carnahan ....Maggie
       Darryl Cox ....Desk Sargeant
       Chamblee Ferguson ....Defense Attorney
       Bill Flynn ....Frederic Wertham M.D.
       Velinda Godfrey ....Nurse
       Jeff Griffin ....Reporter
       Ben Hall ....Albert Budd
       Christopher Hurt ....Newspaper Boy
       Shawn Jefferson ....Officer Macdonald
       Kent Jones ....Scoutmaster
       Aaron Kozak ....Willie
       Ian Leson ....Cop
       Calley Luman ....Gloria DeMarco
       Austin Majors ....Boy Scout (voice)
       Cayman Mitchell ....Francis McDonnell
       Allison Nevins ....Mother #2
       Dennis O'Neill ....Oscar Downey
       Jackson Pace ....Billy Gaffney
       Eric Parker ....Edward Budd
       Lucas Ross ....Sailor
       W. Jerome Stevenson ....Janitor
       Heather Surdukan ....Mrs. Karlson
       Paul T. Taylor ....Western Union Manager
       Laurel Whitsett ....Miss Bruce
       Jerome Bethea ....Townsperson (uncredited)
       Eric Wyatt ....Police Officer (uncredited)
 

◎简  介
 
    影片讲述了Albert Fish(亚伯特.费雪)这位美国历史上最臭名昭著的连环杀手的真实故事。1928年,10岁的小可爱Grace Budd被一个看似慈祥的老头诱拐后失踪。在全国寻找了6年后,探员最终以拐骗儿童罪拘捕了亚伯特.费雪,但却不知该如何向公众揭露他们发现的令人发指的事实……

 

  General #1
    ID : 1 (0x1)
    Complete name : 00000.m2ts
    Format : BDAV
    Format/Info : Blu-ray Video
    File size : 15.9 GiB
    Duration : 1h 36mn
    Overall bit rate mode : Variable
    Overall bit rate : 23.5 Mbps
    Maximum Overall bit rate : 35.5 Mbps
  Video #4113
    ID : 4113 (0x1011)
    Menu ID : 1 (0x1)
    Format : AVC
    Format/Info : Advanced Video Codec
    Format profile : High@L4.1
    Format settings, CABAC : Yes
    Format settings, ReFrames : 3 frames
    Format settings, GOP : M=3, N=12
    Codec ID : 27
    Duration : 1h 36mn
    Bit rate mode : Variable
    Bit rate : 20.7 Mbps
    Maximum bit rate : 35.0 Mbps
    Width : 1 920 pixels
    Height : 1 080 pixels
    Display aspect ratio : 16:9
    Frame rate : 23.976 fps
    Standard : NTSC
    Color space : YUV
    Chroma subsampling : 4:2:0
    Bit depth : 8 bits
    Scan type : Progressive
    Bits/(Pixel*Frame) : 0.417
    Stream size : 14.0 GiB (88%)
    Color primaries : BT.709-5, BT.1361, IEC 61966-2-4, SMPTE RP177
    Transfer characteristics : BT.709-5, BT.1361
    Matrix coefficients : BT.709-5, BT.1361, IEC 61966-2-4 709, SMPTE RP177
  Audio #4352
    ID : 4352 (0x1100)
    Menu ID : 1 (0x1)
    Format : DTS
    Format/Info : Digital Theater Systems
    Format profile : MA / Core
    Muxing mode : Stream extension
    Codec ID : 134
    Duration : 1h 36mn
    Bit rate mode : Variable
    Bit rate : 1 561 Kbps / 1 510 Kbps
    Channel(s) : 6 channels
    Channel positions : Front: L C R, Side: L R, LFE
    Sampling rate : 48.0 KHz
    Bit depth : 16 bits
    Compression mode : Lossless / Lossy
    Language : English
  Audio #4353
    ID : 4353 (0x1101)
    Menu ID : 1 (0x1)
    Format : AC-3
    Format/Info : Audio Coding 3
    Codec ID : 129
    Duration : 32ms
    Bit rate : 256 Kbps
    Channel(s) : 2 channels
    Sampling rate : 48.0 KHz
    Compression mode : Lossy
    Stream size : 1.00 KiB (0%)
    Language : German
  Text #4608
    ID : 4608 (0x1200)
    Menu ID : 1 (0x1)
    Format : PGS
    Codec ID : 144
    Delay relative to video : 10s 761ms
    Language : Chinese
  Text #4609
    ID : 4609 (0x1201)
    Menu ID : 1 (0x1)
    Format : PGS
    Codec ID : 144
    Delay relative to video : 10s 761ms
    Language : Chinese
  Text #4610
    ID : 4610 (0x1202)
    Menu ID : 1 (0x1)
    Format : PGS
    Codec ID : 144
    Delay relative to video : 10s 886ms
    Language : German

  评论这张
 
阅读(158)| 评论(0)
推荐 转载

历史上的今天

在LOFTER的更多文章

评论

<#--最新日志,群博日志--> <#--推荐日志--> <#--引用记录--> <#--博主推荐--> <#--随机阅读--> <#--首页推荐--> <#--历史上的今天--> <#--被推荐日志--> <#--上一篇,下一篇--> <#-- 热度 --> <#-- 网易新闻广告 --> <#--右边模块结构--> <#--评论模块结构--> <#--引用模块结构--> <#--博主发起的投票-->
 
 
 
 
 
 
 
 
 
 
 
 
 
 

页脚

网易公司版权所有 ©1997-2017