注册 登录  
 加关注
   显示下一条  |  关闭
温馨提示!由于新浪微博认证机制调整,您的新浪微博帐号绑定已过期,请重新绑定!立即重新绑定新浪微博》  |  关闭

逆风飞翔的鸟

追逐风中散落的默契~

 
 
 

日志

 
 
关于我

曾经迷惑于一份距离 曾经感动于一个传说 …… 在仆仆风中 我伸手 抓住你我的缘分 …… “傻傻”的你 能闻到风中 你我的默契吗?!

网易考拉推荐

【动作】Seven.Below.2012.七个以下  

2012-05-21 11:15:38|  分类: 动作 |  标签: |举报 |字号 订阅

  下载LOFTER 我的照片书  |
【动作】Seven.Below.2012.七个以下 - 归鸿 - 归鸿影音

◎译  名 七个以下
◎片  名 Seven Below
◎年  代 2012
◎国  家 美国
◎类  别 惊悚/恐怖
◎语  言 英语
◎IMDB链接  http://www.imdb.com/title/tt1988781/
◎片  长 92 mins 24 seconds
◎导  演 Kevin Carraway
◎主  演 方·基默 Val Kilmer ….McCormick
       文·瑞姆斯 Ving Rhames ….Jack
       鲁克·高斯 Luke Goss ….Issac
       Bonnie Somerville ….Brooklyn
       马特·巴尔 Matt Barr ….Adam
       Christian Baha ….Dr. Lipski
       Brianna Lee Johnson ….Elizabeth
       Rebecca Da Costa ….Courtney
 
 
◎简  介
 
    一辆巴士在穿过山脉时坠毁,兄弟俩连同四个陌生人发现自己被困在雷雨中,而且一个猝死的乘客正死死盯着他们的脸。不久,惊魂未定的他们就被一个神秘男子救了出来。
     
    男子把大家带到了坐落在荒芜的树林里的房子暂时休息,大家无处可去,只好在这里带到暴风雨退去。但是这个房子并不是想象的那么简单,这个老屋似乎有着不为人知的可怕过去。
 


  General #1
    ID : 1 (0x1)
    Complete name : 00000.m2ts
    Format : BDAV
    Format/Info : Blu-ray Video
    File size : 14.7 GiB
    Duration : 1h 32mn
    Overall bit rate mode : Variable
    Overall bit rate : 22.7 Mbps
    Maximum Overall bit rate : 35.5 Mbps
  Video #4113
    ID : 4113 (0x1011)
    Menu ID : 1 (0x1)
    Format : AVC
    Format/Info : Advanced Video Codec
    Format profile : High@L4.1
    Format settings, CABAC : Yes
    Format settings, ReFrames : 3 frames
    Codec ID : 27
    Duration : 1h 32mn
    Bit rate mode : Variable
    Bit rate : 20.3 Mbps
    Maximum bit rate : 25.0 Mbps
    Width : 1 920 pixels
    Height : 1 080 pixels
    Display aspect ratio : 16:9
    Frame rate : 23.976 fps
    Standard : NTSC
    Color space : YUV
    Chroma subsampling : 4:2:0
    Bit depth : 8 bits
    Scan type : Progressive
    Bits/(Pixel*Frame) : 0.408
    Stream size : 13.1 GiB (89%)
    Color primaries : BT.709-5, BT.1361, IEC 61966-2-4, SMPTE RP177
    Transfer characteristics : BT.709-5, BT.1361
    Matrix coefficients : BT.709-5, BT.1361, IEC 61966-2-4 709, SMPTE RP177
  Audio #4352
    ID : 4352 (0x1100)
    Menu ID : 1 (0x1)
    Format : DTS
    Format/Info : Digital Theater Systems
    Muxing mode : Stream extension
    Codec ID : 134
    Duration : 1h 31mn
    Bit rate mode : Constant
    Bit rate : 1 510 Kbps
    Channel(s) : 6 channels
    Channel positions : Front: L C R, Side: L R, LFE
    Sampling rate : 48.0 KHz
    Bit depth : 16 bits
    Compression mode : Lossy
    Stream size : 992 MiB (7%)
    Language : English
  Text #4608
    ID : 4608 (0x1200)
    Menu ID : 1 (0x1)
    Format : PGS
    Codec ID : 144
    Language : Chinese

  评论这张
 
阅读(87)| 评论(0)
推荐 转载

历史上的今天

在LOFTER的更多文章

评论

<#--最新日志,群博日志--> <#--推荐日志--> <#--引用记录--> <#--博主推荐--> <#--随机阅读--> <#--首页推荐--> <#--历史上的今天--> <#--被推荐日志--> <#--上一篇,下一篇--> <#-- 热度 --> <#-- 网易新闻广告 --> <#--右边模块结构--> <#--评论模块结构--> <#--引用模块结构--> <#--博主发起的投票-->
 
 
 
 
 
 
 
 
 
 
 
 
 
 

页脚

网易公司版权所有 ©1997-2017