注册 登录  
 加关注
   显示下一条  |  关闭
温馨提示!由于新浪微博认证机制调整,您的新浪微博帐号绑定已过期,请重新绑定!立即重新绑定新浪微博》  |  关闭

逆风飞翔的鸟

追逐风中散落的默契~

 
 
 

日志

 
 
关于我

曾经迷惑于一份距离 曾经感动于一个传说 …… 在仆仆风中 我伸手 抓住你我的缘分 …… “傻傻”的你 能闻到风中 你我的默契吗?!

网易考拉推荐

【幻想】Hell's.Rain.2007.暴雨將至  

2012-05-21 11:00:35|  分类: 幻想 |  标签: |举报 |字号 订阅

  下载LOFTER 我的照片书  |
【幻想】Hells.Rain.2007.暴雨將至 - 归鸿 - 归鸿影音

◎译  名 Hell’s Rain
◎片  名 暴雨將至
◎年  代 2007
◎IMDB链接   http://www.imdb.com/title/tt1029097/
◎地  区 美國
◎类  别 科幻
◎语  言 英文
◎字        幕    繁體中文 / 英文 / 簡體中文
◎片  长 95 Mins
◎導演名單  克裡斯多福塔伯利
◎主  演  凱倫奧斯汀、柴克坎柏、史考特海蘭德、雪莉.威爾森


◎简  介

    安娜和傑克在科羅拉多的小鎮過著美滿和樂的家庭生活。可是死神的降臨成了他們生命中最不幸的開端:他們最親愛的兒子瑞克,在一次意外中喪失生命,原先美好平淡的生活一下子被巨大的陰影完全籠罩,傑克也一直沉溺在失去兒子的夢魘之中,久久無法振作甦醒…。

    六個月後,他們決定離開這個令他們傷心欲絕的小鎮,留下那些悲傷的記憶、忘記一切痛苦的回憶。然而這時,天空中卻出現了不同於往常的異樣景象,數以萬計的彗星居然成了熊熊燃燒的巨大火球,熱騰騰地衝向地球…。這回地球上所有的人類,該怎麼面對這場狂暴的災難?!

 

  General #1
    ID : 1 (0x1)
    Complete name : 00000.m2ts
    Format : BDAV
    Format/Info : Blu-ray Video
    File size : 18.2 GiB
    Duration : 1h 41mn
    Overall bit rate : 25.6 Mbps
    Maximum Overall bit rate : 35.5 Mbps
  Video #4113
    ID : 4113 (0x1011)
    Menu ID : 1 (0x1)
    Format : AVC
    Format/Info : Advanced Video Codec
    Format profile : High@L4.1
    Format settings, CABAC : Yes
    Format settings, ReFrames : 2 frames
    Format settings, GOP : M=3, N=15
    Codec ID : 27
    Duration : 1h 41mn
    Bit rate mode : Constant
    Bit rate : 24.0 Mbps
    Width : 1 920 pixels
    Height : 1 080 pixels
    Display aspect ratio : 16:9
    Frame rate : 23.976 fps
    Standard : Component
    Color space : YUV
    Chroma subsampling : 4:2:0
    Bit depth : 8 bits
    Scan type : Progressive
    Bits/(Pixel*Frame) : 0.483
    Stream size : 16.3 GiB (89%)
  Audio #4352
    ID : 4352 (0x1100)
    Menu ID : 1 (0x1)
    Format : DTS
    Format/Info : Digital Theater Systems
    Format profile : MA
    Muxing mode : Stream extension
    Codec ID : 134
    Duration : 203ms
    Bit rate : 1 711 Kbps
    Channel(s) : 6 channels
    Channel positions : Front: L C R, Side: L R, LFE
    Sampling rate : 48.0 KHz
    Bit depth : 16 bits
    Compression mode : Lossy
    Delay relative to video : -83ms
    Stream size : 42.4 KiB (0%)
    Language : English
  Text #4608
    ID : 4608 (0x1200)
    Menu ID : 1 (0x1)
    Format : PGS
    Codec ID : 144
    Language : Chinese
  Text #4609
    ID : 4609 (0x1201)
    Menu ID : 1 (0x1)
    Format : PGS
    Codec ID : 144
    Language : Chinese
  Text #4610
    ID : 4610 (0x1202)
    Menu ID : 1 (0x1)
    Format : PGS
    Codec ID : 144
    Language : English

  评论这张
 
阅读(148)| 评论(0)
推荐 转载

历史上的今天

在LOFTER的更多文章

评论

<#--最新日志,群博日志--> <#--推荐日志--> <#--引用记录--> <#--博主推荐--> <#--随机阅读--> <#--首页推荐--> <#--历史上的今天--> <#--被推荐日志--> <#--上一篇,下一篇--> <#-- 热度 --> <#-- 网易新闻广告 --> <#--右边模块结构--> <#--评论模块结构--> <#--引用模块结构--> <#--博主发起的投票-->
 
 
 
 
 
 
 
 
 
 
 
 
 
 

页脚

网易公司版权所有 ©1997-2017